SplineFontDB: 3.2
FontName: NewCMSans10-BookOblique
FullName: NewComputerModernSans10-BookOblique
FamilyName: NewComputerModernSans10
Weight: Book
Copyright: (C) 2019-2021 Antonis Tsolomitis. This work is released under the GUST Font License --  see http://tug.org/fonts/licenses/GUST-FONT-LICENSE.txt for details.
Version: 7.0.1
ItalicAngle: -12
UnderlinePosition: -146
UnderlineWidth: 40
Ascent: 806
Descent: 194
InvalidEm: 0
sfntRevision: 0x00021999
LayerCount: 2
Layer: 0 0 "Back" 1
Layer: 1 0 "Fore" 0
XUID: [1021 12 -395342500 14302404]
StyleMap: 0x0001
FSType: 12
OS2Version: 3
OS2_WeightWidthSlopeOnly: 0
OS2_UseTypoMetrics: 0
CreationTime: 1254996028
ModificationTime: 1730357540
PfmFamily: 81
TTFWeight: 400
TTFWidth: 5
LineGap: 0
VLineGap: 0
Panose: 0 0 5 0 0 0 0 0 0 0
OS2TypoAscent: 806
OS2TypoAOffset: 0
OS2TypoDescent: -194
OS2TypoDOffset: 0
OS2TypoLinegap: 200
OS2WinAscent: 1154
OS2WinAOffset: 0
OS2WinDescent: 309
OS2WinDOffset: 0
HheadAscent: 1154
HheadAOffset: 0
HheadDescent: -309
HheadDOffset: 0
OS2SubXSize: 650
OS2SubYSize: 600
OS2SubXOff: -16
OS2SubYOff: 75
OS2SupXSize: 650
OS2SupYSize: 600
OS2SupXOff: 74
OS2SupYOff: 350
OS2StrikeYSize: 40
OS2StrikeYPos: 266
OS2CapHeight: 694
OS2XHeight: 444
OS2Vendor: 'UKWN'
OS2CodePages: 20000193.00000000
OS2UnicodeRanges: 20000007.00000000.00000000.00000000
Lookup: 1 0 0 "'locl' Localized Forms in Latin lookup 2" { "'locl' Localized Forms in Latin lookup 2 subtable"  } ['locl' ('latn' <'MOL ' 'ROM ' > ) ]
Lookup: 1 0 0 "'locl' Localized Forms in Greek lookup 32" { "'locl' Localized Forms in Greek lookup 32-1"  } ['locl' ('grek' <'dflt' > ) ]
Lookup: 1 0 0 "betathetamiddle" { "betathetamiddle-1"  } []

StartChar: exclam
Encoding: 33 33 2
Width: 319
GlyphClass: 2
Flags: W
HStem: 0 90<136 205> 674 20G<245 350>
VStem: 262 88<662.829 694>
LayerCount: 2
Fore
SplineSet
233 173 m 1
 161 173 l 1
 194 347 228 520 262 694 c 1
 350 694 l 1
 233 173 l 1
205 0 m 1
 117 0 l 1
 136 90 l 1
 224 90 l 1
 205 0 l 1
EndSplineSet
EndChar

StartChar: quotedbl
Encoding: 34 34 3
Width: 434
GlyphClass: 2
Flags: W
HStem: 430 286<251 274 403 426>
VStem: 190 297
LayerCount: 2
Fore
SplineSet
426 430 m 1
 342 430 l 1
 403 716 l 1
 487 716 l 1
 426 430 l 1
274 430 m 1
 190 430 l 1
 251 716 l 1
 335 716 l 1
 274 430 l 1
EndSplineSet
EndChar

StartChar: numbersign
Encoding: 35 35 4
Width: 833
GlyphClass: 2
Flags: W
HStem: 127 48<88.3135 272 345 498 571 807.569> 325 48<130.431 367 441 593 667 849.687> 674 20G<556.5 571.5 783.5 798>
VStem: 758 50<668 691.859>
LayerCount: 2
Fore
SplineSet
808 325 m 2
 643 325 l 1
 571 175 l 1
 775 175 l 2
 797 175 813 170 808 150 c 0
 805 135 792 127 768 127 c 2
 548 127 l 1
 406 -168 l 2
 398 -185 388 -194 376 -194 c 0
 363 -194 353 -183 356 -169 c 0
 359 -160 362 -154 365 -150 c 2
 498 127 l 1
 321 127 l 1
 180 -168 l 2
 171 -185 161 -194 149 -194 c 0
 125 -194 127 -164 138 -150 c 1
 272 127 l 1
 121 127 l 2
 98 127 84 132 88 152 c 0
 91 167 105 175 130 175 c 2
 295 175 l 1
 367 325 l 1
 163 325 l 2
 141 325 125 330 130 350 c 0
 133 365 147 373 171 373 c 2
 391 373 l 1
 532 668 l 2
 540 685 550 694 563 694 c 0
 580 694 586 686 582 669 c 0
 579 660 576 654 573 650 c 2
 441 373 l 1
 618 373 l 1
 758 668 l 2
 767 685 777 694 790 694 c 0
 806 694 812 686 808 669 c 0
 806 660 803 654 800 650 c 2
 667 373 l 1
 818 373 l 2
 841 373 854 368 850 348 c 0
 847 333 833 325 808 325 c 2
416 325 m 1
 345 175 l 1
 522 175 l 1
 593 325 l 1
 416 325 l 1
EndSplineSet
EndChar

StartChar: dollar
Encoding: 36 36 5
Width: 500
GlyphClass: 2
Flags: W
HStem: -10 71<154.926 216> 633 71<432 485.912>
VStem: 159 85<441.94 563.238> 407 83<143.095 277.576>
LayerCount: 2
Fore
SplineSet
368 402 m 1
 441 385 490 329 490 242 c 0
 490 175 464 115 412 63 c 0
 374 24 330 1 281 -8 c 1
 271 -56 l 1
 206 -56 l 1
 216 -10 l 1
 157 -3 104 20 55 60 c 1
 85 135 l 1
 124 93 172 68 230 61 c 1
 285 319 l 1
 235 333 200 356 181 389 c 0
 166 413 159 441 159 473 c 0
 159 530 183 584 232 633 c 0
 268 670 313 693 366 703 c 1
 376 750 l 1
 441 750 l 1
 432 704 l 1
 479 700 524 681 566 647 c 1
 537 574 l 1
 502 608 461 628 416 633 c 1
 368 402 l 1
351 630 m 1
 297 615 244 563 244 502 c 0
 244 459 265 431 306 418 c 1
 351 630 l 1
346 303 m 1
 297 66 l 1
 324 75 346 89 365 110 c 0
 393 142 407 176 407 211 c 0
 407 259 387 290 346 303 c 1
EndSplineSet
Substitution2: "'onum' Oldstyle Figures lookup 4 subtable" dollar.oldstyle
Substitution2: "'aalt' Access All Alternates lookup 0 subtable" dollar.oldstyle
EndChar

StartChar: percent
Encoding: 37 37 6
Width: 833
GlyphClass: 2
Flags: W
HStem: -56 68<612.285 676.036> 283 68<658.024 725.484> 343 68<258.764 323.688> 682 68<302.8 372.222>
VStem: 166 80<418.794 595.399> 384 77<499.596 674.28> 519 81<19.4275 196.399> 738 76<98.8607 275.079>
LayerCount: 2
Fore
SplineSet
273 343 m 0xbf
 235 343 206 363 185 402 c 0
 172 426 166 454 166 485 c 0
 166 504 168 525 173 548 c 0
 192 635 263 750 357 750 c 0
 394 750 423 730 443 691 c 0
 455 668 461 641 461 610 c 0
 461 590 458 568 453 545 c 0
 435 459 364 343 273 343 c 0xbf
801 706 m 2
 215 -39 l 2
 206 -50 197 -56 188 -56 c 0
 173 -56 166 -48 168 -31 c 1
 180 -12 l 1
 767 733 l 2
 776 744 785 750 794 750 c 0
 807 750 817 739 814 725 c 0
 813 722 809 715 801 706 c 2
710 351 m 0xdf
 774 351 814 284 814 209 c 0
 814 189 812 168 807 146 c 0
 789 60 717 -56 625 -56 c 0
 588 -56 559 -36 538 3 c 0
 525 28 519 56 519 87 c 0
 519 106 521 127 526 149 c 0
 544 236 616 351 710 351 c 0xdf
384 600 m 0
 384 637 373 682 344 682 c 0
 335 682 325 678 315 671 c 0
 288 651 267 609 254 545 c 0
 249 520 246 498 246 480 c 0
 246 450 252 430 263 420 c 0
 270 414 278 411 286 411 c 0xbf
 303 411 321 424 339 450 c 0
 369 495 384 545 384 600 c 0
738 204 m 0
 738 241 726 283 697 283 c 0xdf
 688 283 679 279 669 272 c 0
 641 252 620 210 607 146 c 0
 602 121 600 99 600 81 c 0
 600 51 605 31 616 21 c 0
 623 15 630 12 638 12 c 0
 656 12 674 25 692 52 c 0
 723 97 738 147 738 204 c 0
EndSplineSet
EndChar

StartChar: ampersand
Encoding: 38 38 7
Width: 758
GlyphClass: 2
Flags: W
HStem: -22 71<179.22 345.434 519.917 698.79> 648 68<389.375 470.473>
VStem: 260 82<411 558.892>
LayerCount: 2
Fore
SplineSet
460 130 m 1
 548 190 632 302 684 409 c 1
 749 389 l 1
 684 257 602 155 504 82 c 1
 531 60 561 49 593 49 c 0
 631 49 672 56 716 69 c 1
 700 -6 l 1
 656 -17 615 -22 578 -22 c 0
 522 -22 473 -3 431 35 c 1
 355 -3 285 -22 222 -22 c 0
 138 -22 69 30 69 114 c 0
 69 169 93 218 142 261 c 1
 142 261 217 316 255 345 c 1
 265 355 l 2
 265 357 265 359 264 362 c 0
 261 383 260 404 260 424 c 0
 260 521 286 599 338 658 c 0
 371 697 409 716 451 716 c 0
 490 716 519 699 537 666 c 0
 549 645 555 621 555 596 c 0
 555 548 534 502 493 458 c 0
 462 425 417 386 356 341 c 1
 375 272 409 201 460 130 c 1
438 648 m 0
 421 648 404 640 387 624 c 0
 370 608 356 580 347 541 c 0
 346 532 344 518 342 499 c 0
 339 464 340 434 344 411 c 1
 422 471 465 520 474 558 c 0
 476 583 481 611 468 631 c 0
 461 642 451 648 438 648 c 0
384 84 m 1
 353 126 301 223 280 286 c 1
 268 277 250 264 226 246 c 0
 215 239 210 235 210 234 c 0
 172 204 135 133 171 79 c 0
 185 59 207 49 237 49 c 0
 284 49 333 61 384 84 c 1
EndSplineSet
Substitution2: "'lnum' Lining Figures lookup 5 subtable" ampersand
Substitution2: "'onum' Oldstyle Figures lookup 4 subtable" ampersand
Substitution2: "'aalt' Access All Alternates lookup 0 subtable" ampersand
EndChar

StartChar: quotesingle
Encoding: 39 39 8
Width: 278
GlyphClass: 2
Flags: W
HStem: 430 286<249 272>
VStem: 190 141
LayerCount: 2
Fore
SplineSet
272 430 m 1
 190 430 l 1
 249 716 l 1
 331 716 l 1
 272 430 l 1
EndSplineSet
Substitution2: "'locl' Localized Forms in Greek lookup 32-1" uni1FBD
Substitution2: "'cv04' Character Variants 04 in Greek lookup 24 subtable" uni1FBD
EndChar

StartChar: parenleft
Encoding: 40 40 9
Width: 389
GlyphClass: 2
Flags: W
LayerCount: 2
Fore
SplineSet
498 750 m 1
 349 626 262 472 216 249 c 0
 188 121 183 -39 224 -142 c 0
 249 -201 254 -206 287 -250 c 1
 218 -250 l 1
 147 -168 111 -63 111 66 c 0
 111 123 118 184 132 251 c 0
 179 473 277 631 426 750 c 1
 498 750 l 1
EndSplineSet
EndChar

StartChar: parenright
Encoding: 41 41 10
Width: 389
GlyphClass: 2
Flags: W
LayerCount: 2
Fore
SplineSet
362 249 m 0
 317 29 217 -131 68 -250 c 1
 -4 -250 l 1
 145 -126 232 29 278 251 c 0
 306 379 311 539 270 642 c 0
 245 701 240 706 207 750 c 1
 276 750 l 1
 347 669 383 563 383 434 c 0
 383 377 376 316 362 249 c 0
EndSplineSet
EndChar

StartChar: asterisk
Encoding: 42 42 11
Width: 500
GlyphClass: 2
Flags: W
HStem: 638 20G<227 243.5 533.5 547>
LayerCount: 2
Fore
SplineSet
532 582 m 2
 419 528 l 1
 436 517 464 500 505 475 c 0
 519 468 532 458 529 437 c 0
 525 417 507 398 484 398 c 0
 477 398 466 404 453 415 c 2
 381 473 l 1
 373 413 367 370 361 344 c 0
 355 318 340 306 315 306 c 0
 290 306 280 319 285 345 c 0
 286 353 293 377 304 417 c 2
 319 472 l 1
 220 412 l 2
 205 403 194 398 186 398 c 0
 166 398 156 409 156 430 c 0
 156 456 171 463 192 474 c 2
 304 528 l 1
 218 580 l 2
 203 588 191 598 195 619 c 0
 200 645 215 658 239 658 c 0
 248 658 257 654 266 646 c 2
 342 583 l 1
 346 603 360 697 363 712 c 0
 368 737 383 750 408 750 c 0
 433 750 443 737 438 711 c 0
 433 686 422 643 404 584 c 1
 504 644 l 2
 519 653 530 658 537 658 c 0
 557 658 571 639 567 618 c 0
 564 604 553 592 532 582 c 2
EndSplineSet
EndChar

StartChar: plus
Encoding: 43 43 12
Width: 778
GlyphClass: 2
Flags: W
HStem: 226 48<109.313 413 471 773.687>
LayerCount: 2
Fore
SplineSet
733 226 m 2
 461 226 l 1
 402 -47 l 2
 397 -71 387 -83 372 -83 c 0
 355 -83 350 -71 355 -46 c 2
 413 226 l 1
 142 226 l 2
 119 226 105 231 109 251 c 0
 112 266 126 274 150 274 c 2
 423 274 l 1
 482 547 l 2
 487 571 497 583 512 583 c 0
 529 583 534 571 529 546 c 2
 471 274 l 1
 741 274 l 2
 764 274 778 269 774 249 c 0
 771 234 757 226 733 226 c 2
EndSplineSet
EndChar

StartChar: comma
Encoding: 44 44 13
Width: 278
GlyphClass: 2
Flags: W
HStem: -125 208
VStem: 68 131
LayerCount: 2
Fore
SplineSet
181 -1 m 1
 115 -125 l 1
 68 -125 l 1
 117 -5 l 1
 95 -5 l 1
 113 83 l 1
 199 83 l 1
 181 -1 l 1
EndSplineSet
EndChar

StartChar: hyphen
Encoding: 45 45 14
Width: 333
GlyphClass: 2
Flags: W
HStem: 193 58<64 317>
VStem: 51 279
LayerCount: 2
Fore
SplineSet
317 193 m 1
 51 193 l 1
 64 251 l 1
 330 251 l 1
 317 193 l 1
EndSplineSet
EndChar

StartChar: period
Encoding: 46 46 15
Width: 278
GlyphClass: 2
Flags: W
HStem: 0 83<114 181>
VStem: 96 103
LayerCount: 2
Fore
SplineSet
181 0 m 1
 96 0 l 1
 114 83 l 1
 199 83 l 1
 181 0 l 1
EndSplineSet
EndChar

StartChar: slash
Encoding: 47 47 16
Width: 500
GlyphClass: 2
Flags: W
LayerCount: 2
Fore
SplineSet
589 706 m 2
 55 -228 l 2
 46 -243 37 -250 27 -250 c 0
 14 -250 4 -239 7 -225 c 0
 8 -222 11 -216 16 -206 c 2
 550 728 l 2
 559 743 568 750 578 750 c 0
 591 750 601 739 598 725 c 0
 597 722 594 716 589 706 c 2
EndSplineSet
EndChar

StartChar: zero
Encoding: 48 48 17
Width: 500
GlyphClass: 2
Flags: W
HStem: -22 68<205.285 322.229> 610 68<313.246 434.301>
VStem: 466 80<335.916 576.784>
LayerCount: 2
Fore
SplineSet
526 325 m 0
 505 224 476 145 437 88 c 0
 388 15 324 -22 245 -22 c 0
 162 -22 111 31 97 103 c 0
 94 122 92 143 92 166 c 0
 92 211 98 264 111 327 c 0
 159 561 253 678 393 678 c 0
 466 678 516 635 534 577 c 0
 542 552 546 522 546 487 c 0
 546 442 539 388 526 325 c 0
466 493 m 0
 466 565 434 610 379 610 c 0
 328 610 286 577 252 512 c 0
 233 475 215 416 198 335 c 0
 173 217 144 46 259 46 c 0
 310 46 353 81 387 150 c 0
 408 193 428 256 445 339 c 0
 459 407 466 458 466 493 c 0
EndSplineSet
Substitution2: "'zero' Slashed Zero lookup 14 subtable" zero.slash
Substitution2: "'pnum' Proportional Numbers lookup 6 subtable" zero.prop
Substitution2: "'onum' Oldstyle Figures lookup 4 subtable" zero.oldstyle
AlternateSubs2: "'aalt' Access All Alternates lookup 1 subtable" zero.oldstyle zero.prop zero.slash
EndChar

StartChar: one
Encoding: 49 49 18
Width: 500
GlyphClass: 2
Flags: W
HStem: -0 65<107 230 315 424> 547 66<217 334.307> 658 20G<394.5 444>
LayerCount: 2
Fore
SplineSet
315 65 m 1
 437 65 l 1
 424 -0 l 1
 94 -0 l 1
 107 65 l 1
 230 65 l 1
 336 569 l 1
 300 556 256 548 204 547 c 1
 217 613 l 1
 304 616 371 638 418 678 c 1
 444 678 l 1
 315 65 l 1
EndSplineSet
Substitution2: "'pnum' Proportional Numbers lookup 6 subtable" one.prop
Substitution2: "'onum' Oldstyle Figures lookup 4 subtable" one.oldstyle
AlternateSubs2: "'aalt' Access All Alternates lookup 1 subtable" one.oldstyle one.prop
EndChar

StartChar: two
Encoding: 50 50 19
Width: 500
GlyphClass: 2
Flags: W
HStem: 0 78<151 450> 449 21G<172 195.5> 607 71<281.216 423.807>
VStem: 463 90<413.816 567.42>
LayerCount: 2
Fore
SplineSet
463 496 m 0
 463 564 421 607 352 607 c 0
 313 607 282 594 257 567 c 0
 232 540 208 501 183 449 c 1
 172 468 l 2
 161 488 165 482 149 512 c 1
 204 623 281 678 379 678 c 0
 443 678 490 657 521 614 c 0
 542 584 553 550 553 511 c 0
 553 495 551 478 547 461 c 0
 536 412 510 367 468 328 c 0
 432 294 412 277 359 239 c 0
 287 187 220 131 151 77 c 1
 247 77 l 2
 251 77 257 77 265 78 c 2
 466 78 l 1
 450 0 l 1
 49 0 l 1
 64 69 l 1
 213 193 l 1
 304 263 l 2
 322 277 345 297 374 324 c 0
 389 339 406 359 424 384 c 0
 450 421 463 458 463 496 c 0
EndSplineSet
Substitution2: "'pnum' Proportional Numbers lookup 6 subtable" two.prop
Substitution2: "'onum' Oldstyle Figures lookup 4 subtable" two.oldstyle
AlternateSubs2: "'aalt' Access All Alternates lookup 1 subtable" two.oldstyle two.prop
EndChar

StartChar: three
Encoding: 51 51 20
Width: 500
GlyphClass: 2
Flags: W
HStem: -22 68<164.113 324.836> 320 68<247 365.75> 613 65<294.482 436.61>
VStem: 405 95<135.961 292.891>
LayerCount: 2
Fore
SplineSet
391 678 m 0
 471 678 545 631 545 551 c 0
 545 510 528 469 493 426 c 0
 470 397 440 373 403 354 c 1
 454 335 500 286 500 219 c 0
 500 207 499 194 496 181 c 0
 484 124 453 76 404 37 c 0
 355 -2 301 -22 243 -22 c 0
 160 -22 99 13 59 84 c 1
 86 154 l 1
 114 91 171 46 254 46 c 0
 332 46 386 114 401 184 c 0
 404 193 405 203 405 214 c 0
 405 231 402 250 396 270 c 0
 385 303 356 320 307 320 c 2
 232 320 l 1
 247 388 l 1
 298 392 325 394 328 395 c 0
 388 408 441 465 454 525 c 0
 465 580 430 613 378 613 c 0
 347 613 316 604 284 586 c 0
 252 568 225 540 202 504 c 1
 174 566 l 1
 235 641 307 678 391 678 c 0
EndSplineSet
Substitution2: "'pnum' Proportional Numbers lookup 6 subtable" three.prop
Substitution2: "'onum' Oldstyle Figures lookup 4 subtable" three.oldstyle
AlternateSubs2: "'aalt' Access All Alternates lookup 1 subtable" three.oldstyle three.prop
EndChar

StartChar: four
Encoding: 52 52 21
Width: 500
GlyphClass: 2
Flags: W
HStem: 0 21G<288 378.142> 169 68<166 324 424 506> 636 20G<399.895 512>
LayerCount: 2
Fore
SplineSet
506 169 m 1
 409 169 l 1
 374 0 l 1
 288 0 l 1
 324 169 l 1
 63 169 l 1
 77 235 l 1
 416 656 l 1
 512 656 l 1
 424 237 l 1
 521 237 l 1
 506 169 l 1
333 452 m 0
 276 376 221 304 166 237 c 1
 344 237 l 1
 415 571 l 1
 399 543 372 503 333 452 c 0
EndSplineSet
Substitution2: "'pnum' Proportional Numbers lookup 6 subtable" four.prop
Substitution2: "'onum' Oldstyle Figures lookup 4 subtable" four.oldstyle
AlternateSubs2: "'aalt' Access All Alternates lookup 1 subtable" four.oldstyle four.prop
EndChar

StartChar: five
Encoding: 53 53 22
Width: 500
GlyphClass: 2
Flags: W
HStem: -22 68<161.154 308.553> 361 69<265.586 383.458> 585 71<283 541>
VStem: 406 93<160.332 339.068>
LayerCount: 2
Fore
SplineSet
406 270 m 0
 406 319 383 361 336 361 c 0
 287 361 245 335 212 283 c 1
 140 283 l 1
 218 656 l 1
 556 656 l 1
 541 585 l 1
 283 585 l 1
 242 394 l 1
 277 418 313 430 350 430 c 0
 403 430 443 408 471 363 c 0
 490 333 499 299 499 261 c 0
 499 243 497 224 493 203 c 0
 480 142 447 88 396 44 c 0
 345 0 288 -22 226 -22 c 0
 147 -22 89 12 54 79 c 1
 105 142 l 1
 123 87 169 46 238 46 c 0
 253 46 269 50 288 57 c 0
 359 84 406 173 406 270 c 0
EndSplineSet
Substitution2: "'pnum' Proportional Numbers lookup 6 subtable" five.prop
Substitution2: "'onum' Oldstyle Figures lookup 4 subtable" five.oldstyle
AlternateSubs2: "'aalt' Access All Alternates lookup 1 subtable" five.oldstyle five.prop
EndChar

StartChar: six
Encoding: 54 54 23
Width: 500
GlyphClass: 2
Flags: W
HStem: -22 68<205.028 330.02> 396 68<293.606 397.016> 613 65<360.341 543.801>
VStem: 93 84<76.1249 283.328>
LayerCount: 2
Fore
SplineSet
541 590 m 1
 507 605 473 613 440 613 c 0
 325 613 249 494 217 392 c 1
 270 440 329 464 392 464 c 0
 439 464 474 440 495 392 c 0
 507 364 513 332 513 297 c 0
 513 274 510 249 505 222 c 0
 490 153 456 94 404 46 c 0
 355 1 302 -22 247 -22 c 0
 208 -22 174 -9 144 18 c 0
 114 45 97 99 93 179 c 0
 91 216 97 264 110 323 c 0
 130 414 168 493 225 560 c 0
 291 639 366 678 451 678 c 0
 488 678 523 671 556 657 c 1
 541 590 l 1
341 396 m 0
 260 396 202 319 187 247 c 0
 181 231 178 202 177 160 c 0
 176 135 182 110 194 84 c 0
 206 58 228 46 260 46 c 0
 351 46 398 137 417 224 c 0
 437 317 420 396 341 396 c 0
EndSplineSet
Substitution2: "'pnum' Proportional Numbers lookup 6 subtable" six.prop
Substitution2: "'onum' Oldstyle Figures lookup 4 subtable" six.oldstyle
AlternateSubs2: "'aalt' Access All Alternates lookup 1 subtable" six.oldstyle six.prop
EndChar

StartChar: seven
Encoding: 55 55 24
Width: 500
GlyphClass: 2
Flags: W
HStem: -11 21G<149 254.5> 578 78<181 501>
VStem: 149 91<-11 71.0762>
LayerCount: 2
Fore
SplineSet
583 586 m 1
 523 531 462 458 400 369 c 0
 322 256 269 129 240 -11 c 1
 149 -11 l 1
 195 211 312 408 501 579 c 1
 393 579 l 2
 389 579 383 579 374 578 c 2
 165 578 l 1
 181 656 l 1
 597 656 l 1
 583 586 l 1
EndSplineSet
Substitution2: "'pnum' Proportional Numbers lookup 6 subtable" seven.prop
Substitution2: "'onum' Oldstyle Figures lookup 4 subtable" seven.oldstyle
AlternateSubs2: "'aalt' Access All Alternates lookup 1 subtable" seven.oldstyle seven.prop
EndChar

StartChar: eight
Encoding: 56 56 25
Width: 500
GlyphClass: 2
Flags: W
HStem: -22 68<193.273 333.019> 320 68<262.906 380.751> 613 65<301.555 449.537>
VStem: 75 88<76.0506 226.513> 413 87<135.042 288.229> 476 78<456.639 586.422>
LayerCount: 2
Fore
SplineSet
75 140 m 0xf8
 75 245 160 324 243 355 c 1
 191 377 147 428 162 502 c 0
 172 552 200 594 247 629 c 0
 292 662 340 678 393 678 c 0
 446 678 488 660 519 625 c 0
 542 599 554 569 554 535 c 0xf4
 554 524 553 512 550 500 c 0
 535 430 473 377 405 354 c 1
 455 333 500 286 500 220 c 0
 500 207 499 194 496 181 c 0
 484 124 454 76 405 37 c 0
 356 -2 303 -22 245 -22 c 0
 188 -22 143 -2 111 39 c 0
 87 69 75 103 75 140 c 0xf8
476 529 m 0
 476 585 436 613 380 613 c 0
 300 613 235 554 235 472 c 0
 235 416 276 388 332 388 c 0
 407 388 459 438 473 502 c 0
 475 511 476 520 476 529 c 0
413 225 m 0xf8
 413 282 375 320 318 320 c 0
 238 320 183 252 167 182 c 0
 164 167 163 154 163 141 c 0
 163 82 200 46 259 46 c 0
 341 46 393 112 409 183 c 0
 412 198 413 212 413 225 c 0xf8
EndSplineSet
Substitution2: "'pnum' Proportional Numbers lookup 6 subtable" eight.prop
Substitution2: "'onum' Oldstyle Figures lookup 4 subtable" eight.oldstyle
AlternateSubs2: "'aalt' Access All Alternates lookup 1 subtable" eight.oldstyle eight.prop
EndChar

StartChar: nine
Encoding: 57 57 26
Width: 500
GlyphClass: 2
Flags: W
HStem: -22 68<143.49 289.104> 192 68<239.683 346.03> 613 65<314.345 437.215>
VStem: 456 89<361.228 593.332>
LayerCount: 2
Fore
SplineSet
528 334 m 0
 510 246 474 168 419 100 c 0
 355 19 283 -22 202 -22 c 0
 155 -22 113 -6 76 27 c 1
 122 86 l 1
 148 59 179 46 216 46 c 0
 322 46 393 169 422 265 c 1
 369 216 310 192 246 192 c 0
 199 192 164 216 143 264 c 0
 131 292 125 323 125 358 c 0
 125 381 128 407 133 434 c 0
 146 497 177 553 225 601 c 0
 276 652 333 678 396 678 c 0
 437 678 470 664 497 637 c 0
 529 604 545 550 545 476 c 0
 545 435 539 388 528 334 c 0
456 434 m 0
 466 525 466 613 384 613 c 0
 345 613 309 595 277 558 c 0
 252 529 233 487 221 432 c 0
 201 337 217 260 297 260 c 0
 363 260 411 312 437 366 c 0
 449 391 455 413 456 434 c 0
EndSplineSet
Substitution2: "'pnum' Proportional Numbers lookup 6 subtable" nine.prop
Substitution2: "'onum' Oldstyle Figures lookup 4 subtable" nine.oldstyle
AlternateSubs2: "'aalt' Access All Alternates lookup 1 subtable" nine.oldstyle nine.prop
EndChar

StartChar: colon
Encoding: 58 58 27
Width: 278
GlyphClass: 2
Flags: W
HStem: 0 89<115 183> 355 89<188 257>
VStem: 96 179
LayerCount: 2
Fore
SplineSet
257 355 m 1
 170 355 l 1
 188 444 l 1
 275 444 l 1
 257 355 l 1
183 0 m 1
 96 0 l 1
 115 89 l 1
 202 89 l 1
 183 0 l 1
EndSplineSet
EndChar

StartChar: semicolon
Encoding: 59 59 28
Width: 278
GlyphClass: 2
Flags: W
HStem: 354 90<187 257>
VStem: 68 207
LayerCount: 2
Fore
SplineSet
257 354 m 1
 169 354 l 1
 187 444 l 1
 275 444 l 1
 257 354 l 1
183 2 m 1
 116 -125 l 1
 68 -125 l 1
 118 -2 l 1
 95 -2 l 1
 114 88 l 1
 202 88 l 1
 183 2 l 1
EndSplineSet
EndChar

StartChar: less
Encoding: 60 60 29
Width: 778
GlyphClass: 2
Flags: W
LayerCount: 2
Fore
SplineSet
779 491 m 2
 215 250 l 1
 674 9 l 2
 687 2 693 -6 691 -17 c 0
 688 -32 678 -40 663 -40 c 0
 660 -40 654 -38 645 -33 c 2
 152 225 l 2
 123 240 136 264 162 275 c 2
 764 533 l 2
 775 538 782 540 785 540 c 0
 798 540 808 529 805 515 c 0
 802 506 794 498 779 491 c 2
EndSplineSet
EndChar

StartChar: equal
Encoding: 61 61 30
Width: 778
GlyphClass: 2
Flags: W
HStem: 130 46<88.0379 752.82> 324 46<130.18 794.922>
LayerCount: 2
Fore
SplineSet
753 324 m 2
 163 324 l 2
 141 324 125 328 130 348 c 0
 133 363 147 370 171 370 c 2
 763 370 l 2
 786 370 799 366 795 346 c 0
 792 331 778 324 753 324 c 2
713 130 m 2
 121 130 l 2
 98 130 84 134 88 154 c 0
 91 169 105 176 130 176 c 2
 720 176 l 2
 742 176 758 172 753 152 c 0
 750 137 737 130 713 130 c 2
EndSplineSet
EndChar

StartChar: greater
Encoding: 62 62 31
Width: 778
GlyphClass: 2
Flags: W
LayerCount: 2
Fore
SplineSet
721 225 m 2
 119 -33 l 2
 108 -38 101 -40 98 -40 c 0
 81 -40 75 -32 79 -15 c 0
 82 -5 90 3 104 9 c 2
 668 250 l 1
 209 491 l 2
 196 498 190 506 193 517 c 0
 196 532 205 540 220 540 c 0
 223 540 229 538 238 533 c 2
 731 275 l 2
 760 260 747 236 721 225 c 2
EndSplineSet
EndChar

StartChar: question
Encoding: 63 63 32
Width: 472
GlyphClass: 2
Flags: W
HStem: 0 90<198 268> 637 68<263.941 432.556>
VStem: 451 85<505.771 622.085>
LayerCount: 2
Fore
SplineSet
309 230 m 2
 297 173 l 1
 223 173 l 1
 231 209 l 2
 256 323 312 412 400 477 c 0
 434 502 451 535 451 576 c 0
 451 599 443 615 428 623 c 0
 409 632 387 637 361 637 c 0
 306 637 254 618 204 579 c 1
 194 651 l 1
 254 687 314 705 374 705 c 0
 441 705 487 689 510 657 c 0
 527 634 536 609 536 580 c 0
 536 569 535 558 532 547 c 0
 523 501 497 462 455 430 c 0
 374 371 325 304 309 230 c 2
268 0 m 1
 179 0 l 1
 198 90 l 1
 288 90 l 1
 268 0 l 1
EndSplineSet
EndChar

StartChar: at
Encoding: 64 64 33
Width: 667
GlyphClass: 2
Flags: W
HStem: -11 68<309.602 503.949> 119 68<415.913 520.371> 507 68<475.241 578.708> 637 68<419.719 585.549>
VStem: 121 83<169.49 394.882> 305 82<216.679 392.578> 608 97<345 560.754>
LayerCount: 2
Fore
SplineSet
635 92 m 1
 577 39 492 -11 386 -11 c 0
 295 -11 225 24 174 93 c 0
 139 142 121 199 121 263 c 0
 121 290 124 318 130 348 c 0
 150 443 198 525 274 595 c 0
 354 668 441 705 535 705 c 0
 648 705 705 640 705 509 c 0
 705 466 699 417 687 361 c 0
 668 273 632 209 579 170 c 0
 533 136 490 119 450 119 c 0
 399 119 360 141 332 185 c 0
 314 214 305 248 305 287 c 0
 305 306 307 326 311 348 c 0
 334 453 426 575 545 575 c 0
 572 575 596 568 618 555 c 1
 607 610 575 637 522 637 c 0
 449 637 381 606 320 544 c 0
 263 487 227 421 212 346 c 0
 207 321 204 297 204 274 c 0
 204 224 216 180 241 141 c 0
 278 85 331 57 402 57 c 0
 450 57 500 67 551 88 c 0
 558 91 567 92 578 92 c 2
 635 92 l 1
608 399 m 0
 608 455 580 507 532 507 c 0
 462 507 407 413 393 346 c 0
 389 328 387 311 387 294 c 0
 387 239 414 187 462 187 c 0
 491 187 519 202 546 233 c 0
 565 254 579 274 586 291 c 0
 595 309 608 366 608 399 c 0
EndSplineSet
EndChar

StartChar: A
Encoding: 65 65 34
Width: 667
GlyphClass: 2
Flags: W
HStem: 0 21G<25 118.782 536.733 639> 202 63<263 496> 674 20G<421.242 529.256>
AnchorPoint: "topright" 641 430 basechar 0
AnchorPoint: "bottom" 584 7 basechar 0
AnchorPoint: "top" 488 743 basechar 0
AnchorPoint: "below" 358 -20 basechar 0
AnchorPoint: "overlap" 403 325 basechar 0
LayerCount: 2
Fore
SplineSet
540 0 m 1
 507 202 l 1
 226 202 l 1
 107 0 l 1
 25 0 l 1
 433 694 l 1
 526 694 l 1
 639 0 l 1
 540 0 l 1
452 603 m 1
 437 572 407 517 362 438 c 0
 340 399 307 342 263 265 c 1
 496 265 l 1
 461 515 l 2
 456 553 453 582 452 603 c 1
EndSplineSet
Position2: "'cpsp' Capital Spacing lookup 0 subtable" dx=7 dy=0 dh=14 dv=0
EndChar

StartChar: B
Encoding: 66 66 35
Width: 667
GlyphClass: 2
Flags: W
HStem: -0 63<200 455.211> 326 68<270 495.614> 631 63<320 550.703>
VStem: 565 89<148.337 270.668> 610 87<474.565 583.944>
AnchorPoint: "topright" 726 434 basechar 0
AnchorPoint: "top" 464 753 basechar 0
AnchorPoint: "below" 338 -19 basechar 0
AnchorPoint: "overlap" 365 356 basechar 0
LayerCount: 2
Fore
SplineSet
511 363 m 1xe8
 581 347 654 295 654 218 c 0xf0
 654 157 620 103 551 57 c 0
 495 19 432 0 361 -0 c 2
 96 -0 l 1
 244 694 l 1
 481 694 l 2
 551 694 606 677 647 642 c 0
 680 613 697 581 697 545 c 0
 697 536 696 526 694 517 c 0
 677 439 592 387 511 363 c 1xe8
441 631 m 2
 320 631 l 1
 270 394 l 1
 379 394 l 2
 430 394 478 405 524 426 c 0
 581 453 610 489 610 534 c 0xe8
 610 567 589 593 547 611 c 0
 515 624 480 631 441 631 c 2
346 63 m 2
 447 63 565 118 565 213 c 0xf0
 565 250 545 279 505 300 c 0
 472 317 435 326 395 326 c 2
 255 326 l 1
 200 63 l 1
 346 63 l 2
EndSplineSet
Position2: "'cpsp' Capital Spacing lookup 0 subtable" dx=7 dy=0 dh=14 dv=0
EndChar

StartChar: C
Encoding: 67 67 36
Width: 639
GlyphClass: 2
Flags: W
HStem: -11 71<317.389 524.432> 635 71<430.857 628.284>
VStem: 130 97<164.451 390.921>
AnchorPoint: "topright" 741 430 basechar 0
AnchorPoint: "bottom" 408 -9 basechar 0
AnchorPoint: "top" 555 748 basechar 0
AnchorPoint: "below" 408 -39 basechar 0
AnchorPoint: "overlap" 485 334 basechar 0
LayerCount: 2
Fore
SplineSet
685 579 m 1
 639 616 585 635 523 635 c 0
 460 635 401 607 345 551 c 0
 289 495 252 427 235 346 c 0
 230 319 227 293 227 268 c 0
 227 221 238 180 259 143 c 0
 291 88 338 60 399 60 c 0
 441 60 476 64 502 72 c 0
 528 80 563 97 607 124 c 1
 598 46 l 1
 555 22 519 7 491 -0 c 0
 463 -7 428 -11 387 -11 c 0
 298 -11 229 24 180 95 c 0
 147 143 130 198 130 261 c 0
 130 288 133 317 140 348 c 0
 161 443 207 526 280 595 c 0
 357 669 443 706 536 706 c 0
 603 706 664 694 719 669 c 1
 685 579 l 1
EndSplineSet
Position2: "'cpsp' Capital Spacing lookup 0 subtable" dx=7 dy=0 dh=14 dv=0
EndChar

StartChar: D
Encoding: 68 68 37
Width: 722
GlyphClass: 2
Flags: W
HStem: 0 63<202 449.219> 631 63<322 561.854>
VStem: 654 93<300.529 531.394>
AnchorPoint: "topright" 781 430 basechar 0
AnchorPoint: "bottom" 335 1 basechar 0
AnchorPoint: "top" 474 748 basechar 0
AnchorPoint: "below" 332 -19 basechar 0
AnchorPoint: "overlap" 439 346 basechar 0
LayerCount: 2
Fore
SplineSet
360 0 m 2
 95 0 l 1
 243 694 l 1
 505 694 l 2
 591 694 656 659 701 590 c 0
 732 543 747 490 747 430 c 0
 747 401 744 371 737 340 c 0
 718 249 673 171 604 105 c 0
 531 35 449 0 360 0 c 2
622 551 m 0
 589 604 539 631 470 631 c 2
 322 631 l 1
 202 63 l 1
 348 63 l 2
 505 63 615 202 644 342 c 0
 651 372 654 400 654 427 c 0
 654 475 643 516 622 551 c 0
EndSplineSet
Position2: "'cpsp' Capital Spacing lookup 0 subtable" dx=7 dy=0 dh=14 dv=0
EndChar

StartChar: E
Encoding: 69 69 38
Width: 597
GlyphClass: 2
Flags: W
HStem: 0 77<205 555> 325 68<273 584> 619 72<320 672>
AnchorPoint: "topright" 691 430 basechar 0
AnchorPoint: "bottom" 402 2 basechar 0
AnchorPoint: "top" 466 746 basechar 0
AnchorPoint: "below" 352 -22 basechar 0
AnchorPoint: "overlap" 394 358 basechar 0
LayerCount: 2
Fore
SplineSet
672 619 m 1
 471 619 l 2
 463 620 457 620 453 620 c 2
 320 620 l 1
 273 393 l 1
 598 393 l 1
 584 325 l 1
 258 325 l 1
 205 77 l 1
 407 77 l 2
 411 77 417 77 425 78 c 2
 571 78 l 1
 555 0 l 1
 93 0 l 1
 240 691 l 1
 688 691 l 1
 672 619 l 1
EndSplineSet
Position2: "'cpsp' Capital Spacing lookup 0 subtable" dx=7 dy=0 dh=14 dv=0
EndChar

StartChar: F
Encoding: 70 70 39
Width: 569
GlyphClass: 2
Flags: W
HStem: 0 21G<93 193.244> 311 69<270 553> 619 72<320 658>
AnchorPoint: "topright" 661 430 basechar 0
AnchorPoint: "top" 466 750 basechar 0
AnchorPoint: "overlap" 398 342 basechar 0
LayerCount: 2
Fore
SplineSet
658 619 m 1
 464 619 l 2
 456 620 450 620 446 620 c 2
 320 620 l 1
 270 380 l 1
 567 380 l 1
 553 311 l 1
 255 311 l 1
 189 0 l 1
 93 0 l 1
 240 691 l 1
 674 691 l 1
 658 619 l 1
EndSplineSet
Position2: "'cpsp' Capital Spacing lookup 0 subtable" dx=7 dy=0 dh=14 dv=0
EndChar

StartChar: G
Encoding: 71 71 40
Width: 667
GlyphClass: 2
Flags: W
HStem: -11 71<317.389 529.993> 236 68<449 564> 635 71<430.97 625.488>
VStem: 130 97<164.451 390.921>
AnchorPoint: "topright" 751 430 basechar 0
AnchorPoint: "top" 540 745 basechar 0
AnchorPoint: "below" 381 -51 basechar 0
AnchorPoint: "overlap" 464 349 basechar 0
LayerCount: 2
Fore
SplineSet
695 564 m 1
 650 611 592 635 523 635 c 0
 460 635 401 607 345 551 c 0
 289 495 253 427 236 346 c 0
 230 319 227 293 227 268 c 0
 227 221 238 180 259 143 c 0
 291 88 338 60 399 60 c 0
 444 60 488 67 531 80 c 1
 564 236 l 1
 434 236 l 1
 449 304 l 1
 664 304 l 1
 607 39 l 1
 533 6 460 -11 387 -11 c 0
 298 -11 229 24 180 95 c 0
 147 143 130 198 130 261 c 0
 130 288 133 317 140 348 c 0
 161 443 207 526 280 595 c 0
 357 669 443 706 537 706 c 0
 610 706 675 689 730 654 c 1
 695 564 l 1
EndSplineSet
Position2: "'cpsp' Capital Spacing lookup 0 subtable" dx=7 dy=0 dh=14 dv=0
EndChar

StartChar: H
Encoding: 72 72 41
Width: 708
GlyphClass: 2
Flags: W
HStem: 0 21G<93 193.233 518 618.265> 326 68<273 587> 674 20G<236.735 337 661.733 762>
AnchorPoint: "topright" 761 430 basechar 0
AnchorPoint: "bottom" 179 5 basechar 0
AnchorPoint: "top" 513 748 basechar 0
AnchorPoint: "below" 354 -20 basechar 0
AnchorPoint: "overlap" 422 356 basechar 0
LayerCount: 2
Fore
SplineSet
614 0 m 1
 518 0 l 1
 587 326 l 1
 258 326 l 1
 189 0 l 1
 93 0 l 1
 241 694 l 1
 337 694 l 1
 273 394 l 1
 602 394 l 1
 666 694 l 1
 762 694 l 1
 614 0 l 1
EndSplineSet
Position2: "'cpsp' Capital Spacing lookup 0 subtable" dx=7 dy=0 dh=14 dv=0
EndChar

StartChar: I
Encoding: 73 73 42
Width: 278
GlyphClass: 2
Flags: W
HStem: 0 21G<93 191.179> 674 20G<233.821 332>
VStem: 93 239
AnchorPoint: "topright" 371 430 basechar 0
AnchorPoint: "bottom" 167 5 basechar 0
AnchorPoint: "top" 292 746 basechar 0
AnchorPoint: "below" 139 -27 basechar 0
AnchorPoint: "overlap" 218 352 basechar 0
LayerCount: 2
Fore
SplineSet
187 0 m 1
 93 0 l 1
 238 694 l 1
 332 694 l 1
 187 0 l 1
EndSplineSet
Position2: "'cpsp' Capital Spacing lookup 0 subtable" dx=7 dy=0 dh=14 dv=0
EndChar

StartChar: J
Encoding: 74 74 43
Width: 472
GlyphClass: 2
Flags: W
HStem: -22 68<118.154 276.36> 674 20G<439.733 537>
AnchorPoint: "topright" 545 431 basechar 0
AnchorPoint: "top" 501 745 basechar 0
AnchorPoint: "below" 202 -63 basechar 0
AnchorPoint: "overlap" 425 345 basechar 0
LayerCount: 2
Fore
SplineSet
78 106 m 1
 103 71 140 46 194 46 c 0
 247 46 283 62 303 95 c 0
 317 117 326 137 329 155 c 2
 444 694 l 1
 537 694 l 1
 422 150 l 2
 401 51 325 -22 209 -22 c 0
 153 -22 98 -7 45 22 c 1
 78 106 l 1
EndSplineSet
Position2: "'cpsp' Capital Spacing lookup 0 subtable" dx=7 dy=0 dh=14 dv=0
EndChar

StartChar: K
Encoding: 75 75 44
Width: 694
GlyphClass: 2
Flags: W
HStem: 0 21G<95 191.248 545.756 655> 674 20G<238.735 335 664.111 792>
AnchorPoint: "topright" 781 430 basechar 0
AnchorPoint: "top" 511 744 basechar 0
AnchorPoint: "below" 363 -23 basechar 0
AnchorPoint: "overlap" 436 350 basechar 0
LayerCount: 2
Fore
SplineSet
463 418 m 1
 655 0 l 1
 555 0 l 1
 390 357 l 1
 235 226 l 1
 187 0 l 1
 95 0 l 1
 243 694 l 1
 335 694 l 1
 258 334 l 1
 688 694 l 1
 792 694 l 1
 463 418 l 1
EndSplineSet
Position2: "'cpsp' Capital Spacing lookup 0 subtable" dx=7 dy=0 dh=14 dv=0
EndChar

StartChar: L
Encoding: 76 76 45
Width: 542
GlyphClass: 2
Flags: W
HStem: 0 71<204 499> 674 20G<235.764 335>
AnchorPoint: "topright" 441 430 basechar 0
AnchorPoint: "top" 295 744 basechar 0
AnchorPoint: "below" 326 -22 basechar 0
AnchorPoint: "overlap" 208 323 basechar 0
LayerCount: 2
Fore
SplineSet
499 0 m 1
 93 0 l 1
 240 694 l 1
 335 694 l 1
 204 71 l 1
 247 71 l 1
 514 73 l 1
 499 0 l 1
EndSplineSet
Position2: "'cpsp' Capital Spacing lookup 0 subtable" dx=7 dy=0 dh=14 dv=0
EndChar

StartChar: M
Encoding: 77 77 46
Width: 875
GlyphClass: 2
Flags: W
HStem: 0 21G<99 188.271 689 779.265> 674 20G<242.735 380 791.012 923>
AnchorPoint: "topright" 921 430 basechar 0
AnchorPoint: "top" 580 744 basechar 0
AnchorPoint: "below" 438 -22 basechar 0
AnchorPoint: "overlap" 505 364 basechar 0
LayerCount: 2
Fore
SplineSet
460 110 m 1
 483 156 530 238 601 357 c 2
 803 694 l 1
 923 694 l 1
 775 0 l 1
 689 0 l 1
 816 593 l 1
 801 564 782 530 760 493 c 2
 480 22 l 1
 402 22 l 1
 336 410 l 2
 322 490 313 550 310 590 c 1
 184 0 l 1
 99 0 l 1
 247 694 l 1
 366 694 l 1
 394 528 422 361 450 195 c 0
 455 167 458 139 460 110 c 1
EndSplineSet
Position2: "'cpsp' Capital Spacing lookup 0 subtable" dx=7 dy=0 dh=14 dv=0
EndChar

StartChar: N
Encoding: 78 78 47
Width: 708
GlyphClass: 2
Flags: W
HStem: 0 21G<95 184.231 477.215 616.265> 674 20G<238.735 377.752 670.736 760>
AnchorPoint: "topright" 761 430 basechar 0
AnchorPoint: "top" 526 744 basechar 0
AnchorPoint: "below" 357 -21 basechar 0
AnchorPoint: "overlap" 430 331 basechar 0
LayerCount: 2
Fore
SplineSet
546 89 m 1
 675 694 l 1
 760 694 l 1
 612 0 l 1
 483 0 l 1
 308 605 l 1
 180 0 l 1
 95 0 l 1
 243 694 l 1
 372 694 l 1
 546 89 l 1
EndSplineSet
Position2: "'cpsp' Capital Spacing lookup 0 subtable" dx=7 dy=0 dh=14 dv=0
EndChar

StartChar: O
Encoding: 79 79 48
Width: 736
GlyphClass: 2
Flags: W
HStem: -22 72<300.095 466.878> 645 71<414.003 585.547>
VStem: 118 99<147.08 385.666> 670 92<316.383 551.239>
AnchorPoint: "topright" 819 432 basechar 0
AnchorPoint: "bottom" 371 -14 basechar 0
AnchorPoint: "top" 530 753 basechar 0
AnchorPoint: "below" 372 -63 basechar 0
AnchorPoint: "overlap" 457 355 basechar 0
LayerCount: 2
Fore
SplineSet
363 -22 m 0
 279 -22 214 13 167 84 c 0
 134 132 118 188 118 252 c 0
 118 281 122 313 129 346 c 0
 150 441 195 525 265 597 c 0
 342 676 426 716 519 716 c 0
 604 716 669 680 715 607 c 0
 746 558 762 502 762 439 c 0
 762 409 759 377 752 344 c 0
 732 249 687 165 617 94 c 0
 540 17 456 -22 363 -22 c 0
640 567 m 0
 609 619 564 645 505 645 c 0
 437 645 376 613 322 550 c 0
 275 495 244 432 229 359 c 0
 221 323 217 290 217 259 c 0
 217 212 226 171 244 136 c 0
 274 79 319 50 378 50 c 0
 448 50 511 86 566 157 c 0
 613 216 644 284 660 361 c 0
 667 392 670 420 670 447 c 0
 670 494 660 534 640 567 c 0
EndSplineSet
Position2: "'cpsp' Capital Spacing lookup 0 subtable" dx=7 dy=0 dh=14 dv=0
EndChar

StartChar: P
Encoding: 80 80 49
Width: 639
GlyphClass: 2
Flags: W
HStem: 0 21G<95 195.196> 286 65<263 496.983> 631 63<322 549.369>
VStem: 603 88<447.259 583.5>
AnchorPoint: "topright" 719 429 basechar 0
AnchorPoint: "top" 478 743 basechar 0
AnchorPoint: "below" 361 -18 basechar 0
AnchorPoint: "overlap" 385 321 basechar 0
LayerCount: 2
Fore
SplineSet
413 286 m 2
 251 286 l 1
 191 0 l 1
 95 0 l 1
 243 694 l 1
 492 694 l 2
 559 694 612 674 649 633 c 0
 677 602 691 567 691 528 c 0
 691 515 690 503 687 490 c 0
 675 431 641 382 585 343 c 0
 532 305 474 286 413 286 c 2
603 522 m 0
 603 595 536 631 458 631 c 2
 322 631 l 1
 263 351 l 1
 397 351 l 2
 498 351 582 408 599 491 c 0
 602 502 603 512 603 522 c 0
EndSplineSet
Position2: "'cpsp' Capital Spacing lookup 0 subtable" dx=7 dy=0 dh=14 dv=0
EndChar

StartChar: Q
Encoding: 81 81 50
Width: 736
GlyphClass: 2
Flags: W
HStem: -23 71<298.721 429.609> 645 71<414.504 583.197>
VStem: 118 94<146.517 385.016> 670 93<302.343 546.626>
AnchorPoint: "topright" 811 430 basechar 0
AnchorPoint: "top" 534 751 basechar 0
AnchorPoint: "below" 388 -160 basechar 0
AnchorPoint: "overlap" 451 349 basechar 0
LayerCount: 2
Fore
SplineSet
544 34 m 1
 629 -125 l 1
 519 -125 l 1
 460 -6 l 1
 428 -17 396 -23 363 -23 c 0
 279 -23 214 12 167 83 c 0
 134 132 118 188 118 251 c 0
 118 281 122 312 129 345 c 0
 150 441 195 525 265 597 c 0
 342 676 426 716 519 716 c 0
 604 716 669 680 715 607 c 0
 747 558 763 502 763 439 c 0
 763 409 759 377 752 344 c 0
 725 214 655 111 544 34 c 1
641 562 m 0
 610 617 565 645 505 645 c 0
 436 645 373 611 317 543 c 0
 269 485 237 419 222 344 c 0
 215 312 212 282 212 254 c 0
 212 206 222 165 242 130 c 0
 273 75 319 48 378 48 c 0
 396 48 414 51 430 55 c 1
 359 199 l 1
 455 199 l 1
 510 97 l 1
 588 158 638 241 659 345 c 0
 666 379 670 410 670 439 c 0
 670 486 660 527 641 562 c 0
EndSplineSet
Position2: "'cpsp' Capital Spacing lookup 0 subtable" dx=7 dy=0 dh=14 dv=0
EndChar

StartChar: R
Encoding: 82 82 51
Width: 646
GlyphClass: 2
Flags: W
HStem: 0 21G<95 192.217 516.332 620> 313 69<269 404> 631 63<322 559.991>
VStem: 612 88<464.363 586.592>
AnchorPoint: "topright" 711 430 basechar 0
AnchorPoint: "top" 459 747 basechar 0
AnchorPoint: "below" 349 -20 basechar 0
AnchorPoint: "overlap" 361 341 basechar 0
LayerCount: 2
Fore
SplineSet
492 324 m 1
 620 0 l 1
 524 0 l 1
 404 313 l 1
 254 313 l 1
 188 0 l 1
 95 0 l 1
 243 694 l 1
 484 694 l 2
 555 694 610 675 651 638 c 0
 684 608 700 574 700 536 c 0
 700 526 699 516 697 505 c 0
 678 414 585 350 492 324 c 1
612 530 m 0
 612 600 538 631 461 631 c 2
 322 631 l 1
 269 382 l 1
 406 382 l 2
 453 382 494 391 531 410 c 0
 574 433 600 465 609 507 c 0
 611 515 612 523 612 530 c 0
EndSplineSet
Position2: "'cpsp' Capital Spacing lookup 0 subtable" dx=7 dy=0 dh=14 dv=0
EndChar

StartChar: S
Encoding: 83 83 52
Width: 556
GlyphClass: 2
Flags: W
HStem: -22 76<177.239 369.447> 643 73<329.509 511.537>
VStem: 160 90<450.654 569.333> 455 90<139.331 271.015>
AnchorPoint: "topright" 601 430 basechar 0
AnchorPoint: "bottom" 270 -14 basechar 0
AnchorPoint: "top" 430 751 basechar 0
AnchorPoint: "below" 268 -53 basechar 0
AnchorPoint: "overlap" 355 355 basechar 0
LayerCount: 2
Fore
SplineSet
285 54 m 0
 372 54 455 120 455 209 c 0
 455 285 399 298 322 317 c 0
 256 334 224 346 192 389 c 0
 171 418 160 448 160 481 c 0
 160 547 192 605 257 656 c 0
 308 696 366 716 433 716 c 0
 499 716 557 699 608 664 c 1
 573 576 l 1
 529 621 477 643 418 643 c 0
 333 643 250 587 250 504 c 0
 250 471 267 446 302 429 c 0
 311 425 331 419 362 411 c 0
 405 400 433 392 448 385 c 0
 500 361 545 307 545 235 c 0
 545 220 543 205 540 190 c 0
 527 129 495 78 443 38 c 0
 391 -2 333 -22 271 -22 c 0
 190 -22 118 2 53 49 c 1
 88 137 l 1
 142 82 208 54 285 54 c 0
EndSplineSet
Position2: "'cpsp' Capital Spacing lookup 0 subtable" dx=7 dy=0 dh=14 dv=0
EndChar

StartChar: T
Encoding: 84 84 53
Width: 681
GlyphClass: 2
Flags: W
HStem: 0 21G<293 393.279> 616 72<183 425 521 775>
AnchorPoint: "topright" 771 430 basechar 0
AnchorPoint: "bottom" 347 6 basechar 0
AnchorPoint: "top" 485 749 basechar 0
AnchorPoint: "below" 347 -24 basechar 0
AnchorPoint: "overlap" 411 323 basechar 0
LayerCount: 2
Fore
SplineSet
775 616 m 1
 623 616 l 2
 615 617 609 617 605 617 c 2
 521 617 l 1
 389 0 l 1
 293 0 l 1
 425 617 l 1
 341 617 l 2
 337 617 331 617 323 616 c 2
 167 616 l 1
 183 688 l 1
 791 688 l 1
 775 616 l 1
EndSplineSet
Position2: "'cpsp' Capital Spacing lookup 0 subtable" dx=7 dy=0 dh=14 dv=0
EndChar

StartChar: U
Encoding: 85 85 54
Width: 688
GlyphClass: 2
Flags: W
HStem: -22 63<284.464 437.891> 674 20G<236.773 337 652.739 742>
VStem: 137 95<93.9197 298.258>
AnchorPoint: "topright" 761 430 basechar 0
AnchorPoint: "bottom" 348 -14 basechar 0
AnchorPoint: "top" 503 749 basechar 0
AnchorPoint: "below" 348 -44 basechar 0
AnchorPoint: "overlap" 430 357 basechar 0
LayerCount: 2
Fore
SplineSet
232 173 m 0
 232 94 283 41 355 41 c 0
 463 41 539 138 559 234 c 2
 657 694 l 1
 742 694 l 1
 644 233 l 2
 629 163 594 103 536 53 c 0
 478 3 413 -22 342 -22 c 0
 273 -22 219 3 179 52 c 0
 151 87 137 128 137 175 c 0
 137 194 139 214 144 235 c 2
 241 694 l 1
 337 694 l 1
 239 232 l 2
 234 211 232 191 232 173 c 0
EndSplineSet
Position2: "'cpsp' Capital Spacing lookup 0 subtable" dx=7 dy=0 dh=14 dv=0
EndChar

StartChar: V
Encoding: 86 86 55
Width: 667
GlyphClass: 2
Flags: W
HStem: 0 21G<282.398 394.133> 674 20G<161 264.453 704.941 803>
AnchorPoint: "topright" 771 430 basechar 0
AnchorPoint: "top" 489 749 basechar 0
AnchorPoint: "below" 332 -67 basechar 0
AnchorPoint: "overlap" 407 363 basechar 0
LayerCount: 2
Fore
SplineSet
360 90 m 1
 378 127 429 215 512 354 c 2
 717 694 l 1
 803 694 l 1
 382 0 l 1
 286 0 l 1
 161 694 l 1
 261 694 l 1
 338 248 l 2
 351 173 358 120 360 90 c 1
EndSplineSet
Position2: "'cpsp' Capital Spacing lookup 0 subtable" dx=7 dy=0 dh=14 dv=0
EndChar

StartChar: W
Encoding: 87 87 56
Width: 944
GlyphClass: 2
Flags: W
HStem: -0 21G<215.415 313.087 633.5 738.115> 674 20G<162 256.429 570.904 668.466 988.904 1079>
VStem: 596 109<325 368.984>
AnchorPoint: "topright" 1041 430 basechar 0
AnchorPoint: "top" 627 754 basechar 0
AnchorPoint: "below" 477 -21 basechar 0
AnchorPoint: "overlap" 542 324 basechar 0
LayerCount: 2
Fore
SplineSet
705 97 m 1
 724 144 770 239 841 381 c 2
 999 694 l 1
 1079 694 l 1
 728 -0 l 1
 635 -0 l 1
 605 400 l 2
 598 489 595 554 596 597 c 1
 577 548 537 464 477 345 c 2
 303 -0 l 1
 217 -0 l 1
 162 694 l 1
 255 694 l 1
 287 246 l 2
 291 189 292 140 291 101 c 1
 312 156 357 250 424 383 c 2
 581 694 l 1
 667 694 l 1
 692 353 l 2
 702 220 706 134 705 97 c 1
EndSplineSet
Position2: "'cpsp' Capital Spacing lookup 0 subtable" dx=7 dy=0 dh=14 dv=0
EndChar

StartChar: X
Encoding: 88 88 57
Width: 667
GlyphClass: 2
Flags: W
HStem: 0 21G<9 133.333 533.733 656> 674 20G<171 294.588 638.333 763>
AnchorPoint: "topright" 761 430 basechar 0
AnchorPoint: "top" 475 750 basechar 0
AnchorPoint: "below" 332 -26 basechar 0
AnchorPoint: "overlap" 411 365 basechar 0
LayerCount: 2
Fore
SplineSet
451 365 m 1
 656 0 l 1
 544 0 l 1
 390 300 l 1
 115 0 l 1
 9 0 l 1
 356 366 l 1
 171 694 l 1
 284 694 l 1
 419 439 l 1
 657 694 l 1
 763 694 l 1
 451 365 l 1
EndSplineSet
Position2: "'cpsp' Capital Spacing lookup 0 subtable" dx=7 dy=0 dh=14 dv=0
EndChar

StartChar: Y
Encoding: 89 89 58
Width: 667
GlyphClass: 2
Flags: W
HStem: 0 21G<287 384.275> 674 20G<149 270.375 667.5 816>
AnchorPoint: "topright" 771 430 basechar 0
AnchorPoint: "top" 478 752 basechar 0
AnchorPoint: "below" 333 -26 basechar 0
AnchorPoint: "overlap" 419 364 basechar 0
LayerCount: 2
Fore
SplineSet
396 406 m 2
 398 403 405 386 418 354 c 1
 515 470 617 581 718 694 c 1
 816 694 l 1
 439 276 l 1
 380 0 l 1
 287 0 l 1
 346 278 l 1
 149 694 l 1
 261 694 l 1
 396 406 l 2
EndSplineSet
Position2: "'cpsp' Capital Spacing lookup 0 subtable" dx=7 dy=0 dh=14 dv=0
EndChar

StartChar: Z
Encoding: 90 90 59
Width: 611
GlyphClass: 2
Flags: W
HStem: 0 71<194 561> 625 69<216 565>
AnchorPoint: "topright" 671 430 basechar 0
AnchorPoint: "top" 469 749 basechar 0
AnchorPoint: "below" 318 -24 basechar 0
AnchorPoint: "overlap" 371 342 basechar 0
LayerCount: 2
Fore
SplineSet
693 648 m 1
 194 71 l 1
 217 71 l 1
 576 73 l 1
 561 0 l 1
 55 0 l 1
 65 48 l 1
 565 626 l 1
 439 626 l 2
 435 626 429 626 421 625 c 2
 200 625 l 1
 216 694 l 1
 703 694 l 1
 693 648 l 1
EndSplineSet
Position2: "'cpsp' Capital Spacing lookup 0 subtable" dx=7 dy=0 dh=14 dv=0
EndChar

StartChar: bracketleft
Encoding: 91 91 60
Width: 289
GlyphClass: 2
Flags: W
HStem: -250 68<141 217> 682 68<321 412>
LayerCount: 2
Fore
SplineSet
412 682 m 1
 321 682 l 1
 141 -182 l 1
 231 -182 l 1
 217 -250 l 1
 48 -250 l 1
 257 750 l 1
 426 750 l 1
 412 682 l 1
EndSplineSet
EndChar

StartChar: backslash
Encoding: 92 92 61
Width: 500
GlyphClass: 2
Flags: W
VStem: 211 183
LayerCount: 2
Fore
SplineSet
367 -250 m 0
 356 -250 350 -242 347 -225 c 2
 211 727 l 1
 215 742 224 750 238 750 c 0
 249 750 256 742 259 725 c 2
 394 -226 l 1
 391 -242 382 -250 367 -250 c 0
EndSplineSet
EndChar

StartChar: bracketright
Encoding: 93 93 62
Width: 289
GlyphClass: 2
Flags: W
HStem: -250 68<-18 73> 682 68<177 253>
LayerCount: 2
Fore
SplineSet
137 -250 m 1
 -32 -250 l 1
 -18 -182 l 1
 73 -182 l 1
 253 682 l 1
 163 682 l 1
 177 750 l 1
 346 750 l 1
 137 -250 l 1
EndSplineSet
EndChar

StartChar: asciicircum
Encoding: 94 94 63
Width: 556
GlyphClass: 2
Flags: W
HStem: 561 184
LayerCount: 2
Fore
SplineSet
665 561 m 1
 423 679 l 1
 126 561 l 1
 118 589 l 1
 436 745 l 1
 687 588 l 1
 665 561 l 1
EndSplineSet
EndChar

StartChar: underscore
Encoding: 95 95 64
Width: 667
GlyphClass: 2
Flags: W
HStem: -164 78<-17 631>
LayerCount: 2
Fore
SplineSet
631 -164 m 1
 -36 -164 l 1
 -17 -86 l 1
 650 -86 l 1
 631 -164 l 1
EndSplineSet
EndChar

StartChar: grave
Encoding: 96 96 65
Width: 500
GlyphClass: 2
Flags: W
HStem: 527 167
VStem: 254 181
LayerCount: 2
Fore
SplineSet
368 527 m 1
 254 694 l 1
 338 694 l 1
 435 527 l 1
 368 527 l 1
EndSplineSet
EndChar

StartChar: a
Encoding: 97 97 66
Width: 481
GlyphClass: 2
Flags: W
HStem: -11 68<145.737 293.71> 0 21G<328 414.181> 190 59<221.841 365> 395 66<226.249 373.858>
VStem: 390 85<250.971 380.187>
AnchorPoint: "topright" 511 430 basechar 0
AnchorPoint: "bottom" 402 1 basechar 0
AnchorPoint: "top" 359 505 basechar 0
AnchorPoint: "below" 234 -20 basechar 0
AnchorPoint: "overlap" 292 214 basechar 0
AnchorPoint: "hook" 415 1 basechar 0
LayerCount: 2
Fore
SplineSet
341 461 m 0xb8
 419 461 475 408 475 330 c 0
 475 317 473 302 470 287 c 2
 410 0 l 1
 328 0 l 1x78
 335 31 l 1
 289 3 233 -11 168 -11 c 0
 125 -11 98 5 86 37 c 0
 75 66 73 93 78 116 c 0
 90 165 132 200 204 223 c 0
 253 239 311 248 378 249 c 1
 386 288 390 313 390 324 c 0
 390 367 366 395 328 395 c 0
 277 395 222 377 165 342 c 1
 174 417 l 1
 231 446 286 461 341 461 c 0xb8
156 116 m 0
 148 76 190 57 231 57 c 0xb8
 302 57 343 83 354 134 c 2
 365 190 l 1
 235 183 165 159 156 116 c 0
EndSplineSet
Substitution2: "'ss05' Style Set 5 lookup 23 IPA alts-1" a.ipa
EndChar

StartChar: b
Encoding: 98 98 67
Width: 517
GlyphClass: 2
Flags: W
HStem: -11 68<212.427 346.935> 0 21G<81 170.39> 389 69<308.3 436.5> 674 20G<223.764 310>
VStem: 449 86<177.351 353.259>
AnchorPoint: "topright" 489 486 basechar 0
AnchorPoint: "top" 277 733 basechar 0
AnchorPoint: "below" 297 -41 basechar 0
AnchorPoint: "overlap" 324 238 basechar 0
AnchorPoint: "hook" 392 13 basechar 0
LayerCount: 2
Fore
SplineSet
292 -11 m 0xb8
 246 -11 207 6 175 41 c 1
 166 0 l 1
 81 0 l 1x78
 228 694 l 1
 310 694 l 1
 248 404 l 1
 302 440 357 458 413 458 c 0
 460 458 494 435 516 388 c 0
 529 360 535 329 535 295 c 0
 535 272 532 248 527 223 c 0
 504 115 412 -11 292 -11 c 0xb8
431 349 m 0
 410 376 383 389 350 389 c 0
 307 389 269 370 236 333 c 1
 190 117 l 1
 203 77 230 57 269 57 c 0xb8
 364 57 425 140 443 225 c 0
 447 246 449 265 449 282 c 0
 449 311 443 333 431 349 c 0
EndSplineSet
EndChar

StartChar: c
Encoding: 99 99 68
Width: 444
GlyphClass: 2
Flags: W
HStem: -11 71<199.296 364.026> 390 71<260.793 432.796>
VStem: 77 85<98.7292 272.699>
AnchorPoint: "topright" 525 431 basechar 0
AnchorPoint: "bottom" 248 -2 basechar 0
AnchorPoint: "top" 354 505 basechar 0
AnchorPoint: "below" 245 -32 basechar 0
AnchorPoint: "overlap" 312 224 basechar 0
AnchorPoint: "hook" 413 42 basechar 0
LayerCount: 2
Fore
SplineSet
162 175 m 0
 162 108 198 60 264 60 c 0
 321 60 377 79 434 117 c 1
 425 41 l 1
 368 6 310 -11 251 -11 c 0
 189 -11 142 12 111 59 c 0
 88 91 77 128 77 169 c 0
 77 186 79 204 83 223 c 0
 97 288 129 343 178 389 c 0
 230 437 288 461 353 461 c 0
 404 461 453 446 500 416 c 1
 471 345 l 1
 432 375 388 390 340 390 c 0
 244 390 185 308 167 222 c 0
 164 205 162 190 162 175 c 0
EndSplineSet
EndChar

StartChar: d
Encoding: 100 100 69
Width: 517
GlyphClass: 2
Flags: W
HStem: -11 68<198.527 302.675> -0 21G<351 440.236> 389 69<263.046 400.041> 674 20G<496.749 583>
VStem: 75 86<94.61 269.135>
AnchorPoint: "ipaabove" 613 737 basechar 0
AnchorPoint: "ipabelow" 506 -60 basechar 0
AnchorPoint: "topright" 571 430 basechar 0
AnchorPoint: "bottom" 211 -2 basechar 0
AnchorPoint: "top" 550 734 basechar 0
AnchorPoint: "below" 211 -20 basechar 0
AnchorPoint: "overlap" 283 218 basechar 0
AnchorPoint: "hook" 440 -2 basechar 0
LayerCount: 2
Fore
SplineSet
436 0 m 1x78
 351 -0 l 1x78
 360 45 l 1
 311 8 260 -11 208 -11 c 0xb8
 159 -11 123 12 98 58 c 0
 83 87 75 119 75 156 c 0
 75 177 78 200 83 224 c 0
 106 329 194 458 310 458 c 0
 361 458 404 441 440 407 c 1
 501 694 l 1
 583 694 l 1
 436 0 l 1x78
161 166 m 0
 161 100 203 57 261 57 c 0xb8
 285 57 310 65 336 82 c 0
 362 99 376 119 381 142 c 2
 422 339 l 1
 406 372 380 389 343 389 c 0
 247 389 185 307 167 222 c 0
 163 201 161 183 161 166 c 0
EndSplineSet
EndChar

StartChar: e
Encoding: 101 101 70
Width: 444
GlyphClass: 2
Flags: W
HStem: -11 68<199.324 358.045> 215 62<176 409.126> 393 68<254.888 380.352>
VStem: 77 78<103.186 215> 409 62<277.052 362.444>
AnchorPoint: "topright" 481 430 basechar 0
AnchorPoint: "bottom" 250 -6 basechar 0
AnchorPoint: "top" 344 505 basechar 0
AnchorPoint: "below" 251 -34 basechar 0
AnchorPoint: "overlap" 295 245 basechar 0
AnchorPoint: "hook" 393 39 basechar 0
LayerCount: 2
Fore
SplineSet
155 180 m 0
 155 110 196 57 263 57 c 0
 316 57 372 77 429 116 c 1
 420 42 l 1
 363 7 306 -11 249 -11 c 0
 189 -11 143 12 111 59 c 0
 88 91 77 128 77 170 c 0
 77 188 79 207 83 227 c 0
 96 288 125 341 170 387 c 0
 219 436 274 461 333 461 c 0
 425 461 471 409 471 306 c 0
 471 279 467 249 460 215 c 1
 158 215 l 1
 156 203 155 191 155 180 c 0
409 277 m 1
 413 345 384 393 320 393 c 0
 254 393 200 329 176 277 c 1
 409 277 l 1
EndSplineSet
EndChar

StartChar: f
Encoding: 102 102 71
Width: 306
GlyphClass: 2
Flags: W
HStem: 0 21G<100 186.188> 382 65<121 180 272 370> 637 68<329.757 482.48>
AnchorPoint: "topright" 461 430 basechar 0
AnchorPoint: "top" 376 745 basechar 0
AnchorPoint: "overlap" 226 406 basechar 0
AnchorPoint: "hook" 140 10 basechar 0
LayerCount: 2
Fore
SplineSet
479 618 m 1
 454 631 428 637 401 637 c 0
 345 637 307 611 297 560 c 2
 272 447 l 1
 383 447 l 1
 370 382 l 1
 262 382 l 1
 182 0 l 1
 100 0 l 1
 180 382 l 1
 108 382 l 1
 121 447 l 1
 194 447 l 1
 208 512 217 550 221 561 c 0
 248 637 323 705 415 705 c 0
 437 705 464 701 496 693 c 1
 479 618 l 1
EndSplineSet
EndChar

StartChar: g
Encoding: 103 103 72
Width: 500
GlyphClass: 2
Flags: W
HStem: -206 64<119.928 327.926> -5 79<151.529 366.17> 125 64<209.936 321.593> 388 67<437.651 566.647> 391 64<244.763 357.77>
VStem: 11 79<-114.949 -30.7949> 119 76<204.004 337.089>
AnchorPoint: "topright" 606 436 basechar 0
AnchorPoint: "top" 335 511 basechar 0
AnchorPoint: "overlap" 285 291 basechar 0
LayerCount: 2
Fore
SplineSet
436 384 m 1xf6
 449 356 452 324 445 289 c 0
 427 207 346 125 249 125 c 0
 216 125 188 134 166 152 c 1
 155 139 149 124 149 107 c 0
 149 85 164 74 193 74 c 2
 280 74 l 2
 315 74 352 68 392 57 c 0
 450 40 472 -1 458 -68 c 0
 449 -113 415 -149 356 -174 c 0
 309 -195 259 -206 206 -206 c 0
 145 -206 95 -193 58 -166 c 0
 27 -144 11 -118 11 -88 c 0
 11 -37 39 4 96 35 c 1
 85 56 82 80 88 109 c 0
 94 138 109 166 133 193 c 1
 124 212 119 232 119 255 c 0
 119 314 144 365 194 407 c 0
 233 439 274 455 318 455 c 0
 355 455 384 445 405 424 c 1
 458 445 514 455 571 455 c 1xee
 568 385 l 1
 539 387 519 388 507 388 c 0
 493 388 449 384 436 384 c 1xf6
195 255 m 0
 195 213 224 189 261 189 c 0
 320 189 355 236 368 291 c 0
 381 350 360 391 306 391 c 0
 237 391 195 325 195 255 c 0
336 -14 m 0
 309 -8 286 -5 265 -5 c 2
 177 -5 l 2
 144 -5 121 -15 108 -34 c 0
 97 -50 91 -61 90 -68 c 2
 90 -69 l 1
 79 -121 161 -142 219 -142 c 0
 251 -142 282 -137 313 -126 c 0
 353 -113 376 -94 381 -69 c 0
 387 -40 372 -21 336 -14 c 0
EndSplineSet
EndChar

StartChar: h
Encoding: 104 104 73
Width: 517
GlyphClass: 2
Flags: W
HStem: 0 21G<80 169.163 351 440.161> 390 68<303.894 403.445> 674 20G<222.764 309>
VStem: 417 87<223.531 375.383>
AnchorPoint: "topright" 390 482 basechar 0
AnchorPoint: "bottom" 405 4 basechar 0
AnchorPoint: "top" 271 741 basechar 0
AnchorPoint: "below" 263 -22 basechar 0
AnchorPoint: "overlap" 335 301 basechar 0
AnchorPoint: "hook" 407 4 basechar 0
LayerCount: 2
Fore
SplineSet
436 0 m 1
 351 0 l 1
 413 292 l 2
 416 305 417 316 417 326 c 0
 417 369 392 390 343 390 c 0
 272 390 230 312 216 245 c 2
 165 0 l 1
 80 0 l 1
 227 694 l 1
 309 694 l 1
 245 394 l 1
 290 437 340 458 393 458 c 0
 467 458 504 423 504 353 c 0
 504 336 502 318 498 298 c 2
 436 0 l 1
EndSplineSet
EndChar

StartChar: i
Encoding: 105 105 74
Width: 239
GlyphClass: 2
Flags: W
HStem: 0 21G<80 164.161> 427 20G<167.884 253> 559 96<210 284>
VStem: 80 224
AnchorPoint: "topright" 291 430 basechar 0
AnchorPoint: "bottom" 120 4 basechar 0
AnchorPoint: "top" 268 725 basechar 0
AnchorPoint: "below" 120 -22 basechar 0
AnchorPoint: "overlap" 194 345 basechar 0
AnchorPoint: "hook" 120 9 basechar 0
LayerCount: 2
Fore
SplineSet
284 559 m 1
 190 559 l 1
 210 655 l 1
 304 655 l 1
 284 559 l 1
160 0 m 1
 80 0 l 1
 172 447 l 1
 253 447 l 1
 160 0 l 1
EndSplineSet
EndChar

StartChar: j
Encoding: 106 106 75
Width: 267
GlyphClass: 2
Flags: W
HStem: -205 71<-61.3068 65.09> 426 20G<193.812 280> 559 96<229 304>
VStem: 198 82<412.783 446>
AnchorPoint: "topright" 341 430 basechar 0
AnchorPoint: "top" 288 725 basechar 0
AnchorPoint: "below" 91 -262 basechar 0
AnchorPoint: "overlap" 211 323 basechar 0
LayerCount: 2
Fore
SplineSet
304 559 m 1
 208 559 l 1
 229 655 l 1
 324 655 l 1
 304 559 l 1
174 -57 m 2
 158 -130 99 -205 17 -205 c 0
 -24 -205 -62 -193 -98 -169 c 1
 -60 -100 l 1
 -42 -123 -20 -134 6 -134 c 0
 53 -134 81 -109 91 -65 c 2
 198 446 l 1
 280 446 l 1
 174 -57 l 2
EndSplineSet
EndChar

StartChar: k
Encoding: 107 107 76
Width: 489
GlyphClass: 2
Flags: W
HStem: 0 21G<83 163.255 375.411 475> 427 20G<425.382 550> 674 20G<225.764 309>
AnchorPoint: "ipabelow" 534 -25 basechar 0
AnchorPoint: "ipaabove" 576 746 basechar 0
AnchorPoint: "topright" 397 472 basechar 0
AnchorPoint: "bottom" 139 4 basechar 0
AnchorPoint: "top" 278 745 basechar 0
AnchorPoint: "below" 288 -21 basechar 0
AnchorPoint: "overlap" 279 329 basechar 0
AnchorPoint: "hook" 434 12 basechar 0
LayerCount: 2
Fore
SplineSet
343 272 m 1
 475 0 l 1
 385 0 l 1
 280 219 l 1
 189 141 l 1
 159 0 l 1
 83 0 l 1
 230 694 l 1
 309 694 l 1
 214 248 l 1
 449 447 l 1
 550 447 l 1
 343 272 l 1
EndSplineSet
EndChar

StartChar: l
Encoding: 108 108 77
Width: 239
GlyphClass: 2
Flags: W
HStem: 0 21G<80 164.179> 674 20G<220.821 305>
VStem: 80 225
AnchorPoint: "topright" 291 430 basechar 0
AnchorPoint: "top" 272 745 basechar 0
AnchorPoint: "below" 118 -20 basechar 0
AnchorPoint: "overlap" 202 372 basechar 0
AnchorPoint: "hook" 123 12 basechar 0
LayerCount: 2
Fore
SplineSet
160 0 m 1
 80 0 l 1
 225 694 l 1
 305 694 l 1
 160 0 l 1
EndSplineSet
EndChar

StartChar: m
Encoding: 109 109 78
Width: 794
GlyphClass: 2
Flags: W
HStem: 0 21G<80 169.262 354 443.262 628 717.257> 387 68<305.8 408.992 579.332 683.876>
AnchorPoint: "topright" 801 430 basechar 0
AnchorPoint: "top" 512 505 basechar 0
AnchorPoint: "below" 397 -23 basechar 0
AnchorPoint: "overlap" 470 331 basechar 0
AnchorPoint: "hook" 681 14 basechar 0
LayerCount: 2
Fore
SplineSet
713 0 m 1
 628 0 l 1
 690 291 l 2
 695 314 695 335 690 353 c 0
 684 376 660 387 619 387 c 0
 548 387 505 310 491 244 c 2
 439 0 l 1
 354 0 l 1
 416 291 l 2
 421 314 421 335 416 353 c 0
 410 376 386 387 345 387 c 0
 274 387 231 310 217 244 c 2
 165 0 l 1
 80 0 l 1
 177 450 l 1
 256 450 l 1
 242 388 l 1
 289 433 341 455 396 455 c 0
 461 455 498 430 508 379 c 1
 556 430 610 455 670 455 c 0
 745 455 783 421 783 352 c 0
 783 335 781 317 776 296 c 2
 713 0 l 1
EndSplineSet
EndChar

StartChar: n
Encoding: 110 110 79
Width: 517
GlyphClass: 2
Flags: W
HStem: 0 21G<80 169.18 351 440.189> 387 63<298.061 403.445>
VStem: 417 87<265.529 372.419>
AnchorPoint: "topright" 511 430 basechar 0
AnchorPoint: "top" 376 505 basechar 0
AnchorPoint: "below" 268 -18 basechar 0
AnchorPoint: "overlap" 328 323 basechar 0
AnchorPoint: "hook" 403 13 basechar 0
LayerCount: 2
Fore
SplineSet
242 390 m 1
 269 417 336 455 393 455 c 0
 467 455 504 420 504 351 c 0
 504 334 502 316 498 296 c 2
 436 0 l 1
 351 0 l 1
 413 291 l 2
 416 303 417 314 417 324 c 0
 417 366 392 387 343 387 c 0
 271 387 230 311 216 244 c 2
 165 0 l 1
 80 0 l 1
 176 450 l 1
 255 450 l 1
 242 390 l 1
EndSplineSet
EndChar

StartChar: o
Encoding: 111 111 80
Width: 500
GlyphClass: 2
Flags: W
HStem: -11 71<195.542 337.476> 393 68<256.34 400.072>
VStem: 71 86<100.401 271.219> 440 82<179.304 353.232>
AnchorPoint: "topright" 491 430 basechar 0
AnchorPoint: "bottom" 250 -7 basechar 0
AnchorPoint: "top" 351 505 basechar 0
AnchorPoint: "below" 249 -32 basechar 0
AnchorPoint: "overlap" 308 242 basechar 0
LayerCount: 2
Fore
SplineSet
248 -11 m 0
 188 -11 141 11 107 56 c 0
 83 87 71 124 71 167 c 0
 71 184 73 202 77 221 c 0
 90 285 122 340 173 387 c 0
 226 436 284 461 347 461 c 0
 408 461 454 437 487 390 c 0
 510 357 522 319 522 276 c 0
 522 258 520 239 516 219 c 0
 503 156 470 102 419 57 c 0
 368 12 311 -11 248 -11 c 0
440 283 m 0
 440 351 395 393 333 393 c 0
 241 393 181 312 163 229 c 0
 159 209 157 191 157 175 c 0
 157 108 196 60 261 60 c 0
 313 60 357 85 392 134 c 0
 424 179 440 228 440 283 c 0
EndSplineSet
EndChar

StartChar: p
Encoding: 112 112 81
Width: 517
GlyphClass: 2
Flags: W
HStem: -13 68<211.54 342.118> 384 71<308.233 439.5> 424 20G<170.768 256>
VStem: 447 88<174.916 341.791>
AnchorPoint: "topright" 531 430 basechar 0
AnchorPoint: "top" 395 505 basechar 0
AnchorPoint: "below" 303 -220 basechar 0
AnchorPoint: "overlap" 330 249 basechar 0
AnchorPoint: "hook" 390 36 basechar 0
LayerCount: 2
Fore
SplineSet
293 -13 m 0xd0
 246 -13 206 4 174 39 c 1
 125 -194 l 1
 40 -194 l 1
 175 444 l 1
 256 444 l 1xb0
 248 401 l 1
 301 437 357 455 416 455 c 0
 463 455 497 431 517 384 c 0
 529 357 535 326 535 293 c 0
 535 270 532 246 527 221 c 0
 504 113 412 -13 293 -13 c 0xd0
447 266 m 0
 447 332 409 384 348 384 c 0xd0
 305 384 268 366 236 329 c 1
 193 131 l 2
 190 119 191 108 196 99 c 0
 211 70 234 55 267 55 c 0
 317 55 360 78 396 125 c 0
 430 168 447 215 447 266 c 0
EndSplineSet
EndChar

StartChar: q
Encoding: 113 113 82
Width: 517
GlyphClass: 2
Flags: W
HStem: -13 68<202.192 303.028> 384 71<264.66 392.205>
VStem: 76 86<98.9602 266.932>
AnchorPoint: "topright" 551 430 basechar 0
AnchorPoint: "top" 335 505 basechar 0
AnchorPoint: "below" 189 -192 basechar 0
AnchorPoint: "overlap" 298 240 basechar 0
LayerCount: 2
Fore
SplineSet
319 455 m 0
 370 455 417 424 437 394 c 1
 450 455 l 1
 532 455 l 1
 395 -194 l 1
 310 -194 l 1
 360 42 l 1
 309 5 258 -13 205 -13 c 0
 157 -13 121 10 98 56 c 0
 83 85 76 118 76 154 c 0
 76 175 78 198 83 221 c 0
 96 280 123 333 164 379 c 0
 210 430 262 455 319 455 c 0
341 384 m 0
 292 384 250 361 214 315 c 0
 179 272 162 225 162 175 c 0
 162 148 168 124 181 103 c 0
 199 71 226 55 262 55 c 0
 300 55 335 73 368 110 c 0
 376 119 381 129 384 141 c 2
 413 279 l 2
 425 334 393 384 341 384 c 0
EndSplineSet
EndChar

StartChar: r
Encoding: 114 114 83
Width: 342
GlyphClass: 2
Flags: W
HStem: 0 21G<81 166.225> 381 69<319.531 409>
AnchorPoint: "topright" 441 430 basechar 0
AnchorPoint: "bottom" 122 7 basechar 0
AnchorPoint: "top" 305 505 basechar 0
AnchorPoint: "below" 121 -32 basechar 0
AnchorPoint: "overlap" 183 287 basechar 0
LayerCount: 2
Fore
SplineSet
409 381 m 1
 304 378 226 304 207 213 c 2
 162 0 l 1
 81 0 l 1
 177 450 l 1
 253 450 l 1
 235 370 l 1
 288 426 352 454 425 455 c 1
 409 381 l 1
EndSplineSet
EndChar

StartChar: s
Encoding: 115 115 84
Width: 383
GlyphClass: 2
Flags: W
HStem: -11 70<110.012 283.247> 395 66<201.384 376.189>
VStem: 99 82<292.507 374>
AnchorPoint: "topright" 451 430 basechar 0
AnchorPoint: "bottom" 199 0 basechar 0
AnchorPoint: "top" 300 505 basechar 0
AnchorPoint: "below" 199 -24 basechar 0
AnchorPoint: "overlap" 227 245 basechar 0
AnchorPoint: "hook" 306 19 basechar 0
LayerCount: 2
Fore
SplineSet
207 59 m 0
 264 59 311 84 311 137 c 0
 311 189 217 189 183 202 c 0
 136 216 99 254 99 304 c 0
 99 353 130 402 160 423 c 0
 203 450 243 461 296 461 c 0
 345 461 391 450 435 427 c 1
 406 356 l 1
 368 382 324 395 273 395 c 0
 220 395 189 376 181 337 c 0
 176 316 182 301 199 293 c 0
 216 285 237 278 262 273 c 0
 311 264 346 247 368 223 c 1
 387 194 395 166 388 129 c 0
 370 41 300 -11 195 -11 c 0
 142 -11 89 4 34 34 c 1
 63 109 l 1
 107 76 155 59 207 59 c 0
EndSplineSet
EndChar

StartChar: t
Encoding: 116 116 85
Width: 361
GlyphClass: 2
Flags: W
HStem: -11 71<164.5 299.406> 381 65<113 182 273 398>
VStem: 121 84<61.8356 194.516>
AnchorPoint: "ipaabove" 449 678 basechar 0
AnchorPoint: "ipabelow" 389 -10 basechar 0
AnchorPoint: "topright" 311 470 basechar 0
AnchorPoint: "bottom" 238 0 basechar 0
AnchorPoint: "top" 272 675 basechar 0
AnchorPoint: "below" 223 -24 basechar 0
AnchorPoint: "overlap" 205 308 basechar 0
LayerCount: 2
Fore
SplineSet
398 381 m 1
 260 381 l 1
 209 137 l 2
 206 123 205 111 205 101 c 0
 205 74 216 60 237 60 c 0
 269 60 302 72 335 96 c 1
 340 28 l 1
 285 2 233 -11 186 -11 c 0
 143 -11 121 15 121 67 c 0
 121 83 123 101 127 122 c 2
 182 381 l 1
 100 381 l 1
 113 446 l 1
 198 446 l 1
 225 571 l 1
 300 571 l 1
 273 446 l 1
 411 446 l 1
 398 381 l 1
EndSplineSet
EndChar

StartChar: u
Encoding: 117 117 86
Width: 517
GlyphClass: 2
Flags: W
HStem: -11 62<150.5 303.783> 0 21G<354 440.234> 424 20G<169.783 259 440.833 530>
AnchorPoint: "topright" 551 430 basechar 0
AnchorPoint: "bottom" 397 6 basechar 0
AnchorPoint: "top" 365 505 basechar 0
AnchorPoint: "below" 251 -26 basechar 0
AnchorPoint: "overlap" 313 267 basechar 0
AnchorPoint: "hook" 407 7 basechar 0
LayerCount: 2
Fore
SplineSet
436 0 m 1x60
 354 0 l 1x60
 363 42 l 1
 312 7 253 -11 187 -11 c 0
 114 -11 87 30 104 112 c 2
 174 444 l 1
 259 444 l 1
 189 114 l 2
 178 61 192 51 247 51 c 0xa0
 319 51 371 95 385 156 c 2
 445 444 l 1
 530 444 l 1
 436 0 l 1x60
EndSplineSet
EndChar

StartChar: v
Encoding: 118 118 87
Width: 461
GlyphClass: 2
Flags: W
HStem: 0 21G<181.486 288.982> 424 20G<107 195.256 448.155 543>
AnchorPoint: "topright" 561 430 basechar 0
AnchorPoint: "top" 339 505 basechar 0
AnchorPoint: "below" 225 -41 basechar 0
AnchorPoint: "overlap" 293 310 basechar 0
LayerCount: 2
Fore
SplineSet
247 73 m 1
 261 104 291 159 338 238 c 2
 460 444 l 1
 543 444 l 1
 277 0 l 1
 185 0 l 1
 107 444 l 1
 192 444 l 1
 234 186 l 2
 242 134 246 96 247 73 c 1
EndSplineSet
EndChar

StartChar: w
Encoding: 119 119 88
Width: 683
GlyphClass: 2
Flags: W
HStem: 0 21G<149.063 245.392 437.381 542.495> 424 20G<108 192.839 384.626 471.878 673.619 765>
VStem: 415 84<111.922 327.516>
AnchorPoint: "topright" 781 430 basechar 0
AnchorPoint: "top" 440 505 basechar 0
AnchorPoint: "below" 337 -23 basechar 0
AnchorPoint: "overlap" 393 248 basechar 0
LayerCount: 2
Fore
SplineSet
499 77 m 1
 516 116 541 168 575 234 c 2
 684 444 l 1
 765 444 l 1
 532 0 l 1
 439 0 l 1
 419 247 l 2
 415 294 414 332 415 359 c 1
 402 328 378 276 341 204 c 2
 235 0 l 1
 151 0 l 1
 108 444 l 1
 191 444 l 1
 207 270 l 2
 214 190 217 128 216 83 c 1
 232 124 259 182 298 257 c 2
 395 444 l 1
 470 444 l 1
 490 231 l 2
 497 162 500 111 499 77 c 1
EndSplineSet
EndChar

StartChar: x
Encoding: 120 120 89
Width: 461
GlyphClass: 2
Flags: W
HStem: 0 21G<-6 105.78 361.242 465> 424 20G<95 198.5 430.375 543>
AnchorPoint: "topright" 561 430 basechar 0
AnchorPoint: "bottom" 416 7 basechar 0
AnchorPoint: "top" 320 505 basechar 0
AnchorPoint: "below" 248 -18 basechar 0
AnchorPoint: "overlap" 276 232 basechar 0
AnchorPoint: "hook" 421 7 basechar 0
LayerCount: 2
Fore
SplineSet
314 228 m 1
 465 0 l 1
 373 0 l 1
 266 182 l 1
 86 0 l 1
 -6 0 l 1
 238 229 l 1
 95 444 l 1
 186 444 l 1
 286 284 l 1
 451 444 l 1
 543 444 l 1
 314 228 l 1
EndSplineSet
EndChar

StartChar: y
Encoding: 121 121 90
Width: 461
GlyphClass: 2
Flags: W
HStem: -205 64<8.44739 124.277> 424 20G<105 195.567 403.5 543>
AnchorPoint: "topright" 561 430 basechar 0
AnchorPoint: "top" 332 505 basechar 0
AnchorPoint: "below" 355 -114 basechar 0
AnchorPoint: "overlap" 289 297 basechar 0
LayerCount: 2
Fore
SplineSet
255 82 m 1
 279 141 347 261 460 444 c 1
 543 444 l 1
 213 -91 l 2
 166 -167 120 -205 74 -205 c 0
 50 -205 26 -202 1 -196 c 1
 10 -123 l 1
 36 -135 62 -141 87 -141 c 0
 113 -141 138 -106 151 -85 c 2
 205 2 l 1
 105 444 l 1
 191 444 l 1
 220 317 l 2
 243 212 255 133 255 82 c 1
EndSplineSet
EndChar

StartChar: z
Encoding: 122 122 91
Width: 435
GlyphClass: 2
Flags: W
HStem: 0 69<158 403> 378 66<135 366>
AnchorPoint: "topright" 521 430 basechar 0
AnchorPoint: "top" 325 505 basechar 0
AnchorPoint: "below" 221 -24 basechar 0
AnchorPoint: "overlap" 268 233 basechar 0
AnchorPoint: "hook" 350 11 basechar 0
LayerCount: 2
Fore
SplineSet
486 400 m 1
 158 68 l 1
 250 68 l 2
 258 69 264 69 268 69 c 2
 417 69 l 1
 403 0 l 1
 27 0 l 1
 37 46 l 1
 366 379 l 1
 281 379 l 2
 273 378 267 378 263 378 c 2
 121 378 l 1
 135 444 l 1
 495 444 l 1
 486 400 l 1
EndSplineSet
EndChar

StartChar: braceleft
Encoding: 123 123 92
Width: 500
GlyphClass: 2
Flags: W
HStem: -250 30<302.342 378.947> 236 29<125.141 191.921> 720 30<500.116 583.904>
VStem: 188 74<-192.156 -19.8281>
LayerCount: 2
Fore
SplineSet
570 720 m 0
 518 717 484 703 453 676 c 0
 438 663 427 645 420 622 c 0
 419 617 414 596 406 560 c 2
 368 381 l 2
 363 360 354 338 340 317 c 0
 321 288 286 266 234 250 c 1
 290 230 318 196 317 148 c 0
 317 139 311 109 300 57 c 2
 268 -92 l 2
 263 -115 261 -131 262 -139 c 0
 264 -190 298 -217 363 -220 c 0
 376 -222 381 -227 379 -236 c 0
 378 -245 369 -250 354 -250 c 0
 297 -250 254 -237 223 -211 c 0
 200 -192 188 -169 188 -140 c 0
 188 -128 191 -108 197 -80 c 2
 238 117 l 2
 248 159 240 193 213 210 c 0
 189 226 163 236 136 236 c 0
 126 236 122 239 125 246 c 0
 126 247 126 248 125 250 c 0
 126 259 133 264 144 265 c 0
 185 267 222 282 254 309 c 0
 271 322 283 343 291 371 c 0
 292 373 297 397 307 443 c 2
 345 625 l 2
 360 700 469 750 562 750 c 0
 577 750 586 747 584 734 c 0
 582 727 577 722 570 720 c 0
EndSplineSet
EndChar

StartChar: bar
Encoding: 124 124 93
Width: 278
GlyphClass: 2
Flags: W
VStem: 73 46<-248.515 -180.24> 265 46<680.24 748.515>
LayerCount: 2
Fore
SplineSet
119 -214 m 2
 114 -238 104 -250 89 -250 c 0
 73 -250 68 -237 73 -212 c 2
 265 714 l 2
 270 738 280 750 295 750 c 0
 311 750 316 737 311 712 c 2
 119 -214 l 2
EndSplineSet
EndChar

StartChar: braceright
Encoding: 125 125 94
Width: 500
GlyphClass: 2
Flags: W
HStem: -250 30<21.0959 105.416> 235 29<413.079 479.859> 721 29<225.208 302.658>
VStem: 288 76<295.374 463.953> 343 74<519.828 692.968>
LayerCount: 2
Fore
SplineSet
461 235 m 0xf0
 420 233 383 218 351 191 c 0
 334 178 322 157 314 129 c 0
 313 127 308 103 298 57 c 2
 260 -125 l 2
 251 -165 222 -197 173 -220 c 0
 132 -240 88 -250 43 -250 c 0
 29 -250 19 -247 21 -234 c 0
 23 -227 28 -222 36 -220 c 0
 88 -217 118 -204 152 -175 c 0
 167 -164 178 -146 185 -122 c 0
 188 -115 193 -94 200 -60 c 2
 237 119 l 2
 242 140 251 162 265 183 c 0
 284 212 319 234 371 250 c 1
 315 270 287 304 288 352 c 0xf0
 288 361 294 391 305 443 c 2
 337 592 l 2
 342 615 344 631 343 639 c 0
 341 690 308 717 243 720 c 0
 240 721 238 721 237 721 c 0
 226 721 223 724 226 731 c 0
 226 732 226 733 225 735 c 0
 227 745 236 750 251 750 c 0
 308 750 351 737 382 711 c 0
 405 692 417 669 417 640 c 0xe8
 417 628 414 608 408 580 c 2
 367 383 l 2
 365 373 364 363 364 353 c 0
 364 323 373 302 392 290 c 0
 416 274 442 264 469 264 c 0
 479 264 483 261 480 254 c 0
 479 253 479 252 480 250 c 0
 479 241 472 236 461 235 c 0xf0
EndSplineSet
EndChar

StartChar: asciitilde
Encoding: 126 126 95
Width: 556
GlyphClass: 2
Flags: W
HStem: 193 48<363.865 500.987> 259 48<162.721 293.834>
LayerCount: 2
Fore
SplineSet
552 243 m 2
 501 210 454 193 411 193 c 0
 386 193 354 204 315 226 c 0
 276 248 246 259 224 259 c 0
 181 259 125 236 58 191 c 1
 44 214 l 1
 83 241 129 272 173 290 c 0
 201 301 227 307 250 307 c 0
 279 307 310 296 344 275 c 0
 365 261 384 251 401 246 c 0
 412 243 424 241 437 241 c 0
 481 241 536 264 603 309 c 1
 618 286 l 1
 552 243 l 2
EndSplineSet
EndChar

StartChar: exclamdown
Encoding: 161 161 97
Width: 319
GlyphClass: 3
Flags: W
HStem: 410 90<220 290>
VStem: 76 232
LayerCount: 2
Fore
SplineSet
290 410 m 1
 202 410 l 1
 220 500 l 1
 308 500 l 1
 290 410 l 1
264 327 m 1
 231 153 197 -20 164 -194 c 1
 76 -194 l 1
 192 327 l 1
 264 327 l 1
EndSplineSet
Ligature2: "'dlig' Discretionary Ligatures lookup 13 subtable" exclam quoteleft
Ligature2: "'dlig' Discretionary Ligatures lookup 13 subtable" exclam grave
EndChar

StartChar: cent
Encoding: 162 162 98
Width: 444
GlyphClass: 2
Flags: W
HStem: -10 71<292 367.24> 390 71<377 434.511>
LayerCount: 2
Fore
SplineSet
208 -7 m 1
 133 10 77 78 77 170 c 0
 77 187 79 205 83 223 c 0
 105 332 198 436 305 457 c 1
 316 508 l 1
 387 508 l 1
 377 461 l 1
 416 460 457 445 500 417 c 1
 471 345 l 1
 436 372 400 387 362 390 c 1
 292 61 l 1
 340 66 387 85 434 117 c 1
 425 40 l 1
 376 11 326 -6 277 -10 c 1
 266 -64 l 1
 195 -64 l 1
 208 -7 l 1
290 382 m 1
 227 361 183 294 167 222 c 0
 152 147 173 87 223 67 c 1
 290 382 l 1
EndSplineSet
Substitution2: "'onum' Oldstyle Figures lookup 4 subtable" cent.oldstyle
Substitution2: "'aalt' Access All Alternates lookup 0 subtable" cent.oldstyle
EndChar

StartChar: sterling
Encoding: 163 163 99
Width: 667
GlyphClass: 2
Flags: W
HStem: -22 85<360.553 513.237> -10 21G<117 145> 17 86<242 346.323> 311 71<148 244 334.397 469> 609 85<397.57 526.512>
VStem: 237 86<383.725 532.051> 252 85<231.509 311> 547 85<99.1739 154 485 518.484> 555 87<485.702 580.367>
LayerCount: 2
Fore
SplineSet
632 154 m 1x9b
 615 71 548 -22 455 -22 c 0x9b
 399 -22 323 2 271 14 c 0
 251 18 228 19 201 17 c 0
 174 15 153 6 137 -10 c 1
 82 45 l 1
 193 151 249 240 252 311 c 1x7b
 132 311 l 1
 148 382 l 1
 244 382 l 1
 237 435 l 1
 236 501 261 561 311 614 c 0
 361 667 419 694 485 694 c 0
 540 694 582 674 611 634 c 0
 632 605 642 573 642 536 c 0
 642 520 640 503 636 485 c 1
 551 485 l 1
 554 497 555 508 555 519 c 0
 555 571 521 609 468 609 c 0
 429 609 395 592 366 560 c 0
 337 528 322 492 323 452 c 0x7c80
 323 443 327 419 334 382 c 1
 484 382 l 1
 469 311 l 1
 337 311 l 1
 330 244 299 175 242 103 c 1x7a
 280 102 329 94 390 77 c 0
 423 68 450 63 471 63 c 0
 513 63 540 113 547 154 c 1
 632 154 l 1x9b
EndSplineSet
EndChar

StartChar: currency
Encoding: 164 164 100
Width: 778
GlyphClass: 2
Flags: W
HStem: 53 47<336.798 491.562> 400 47<392.5 547.444>
VStem: 240 48<147.177 294.409> 595 48<199.232 352.736>
LayerCount: 2
Fore
SplineSet
247 467 m 0
 247 480 260 492 272 492 c 0
 281 492 289 487 297 476 c 2
 353 405 l 1
 395 433 438 447 483 447 c 0
 527 447 564 433 595 405 c 1
 681 475 l 2
 693 485 703 490 712 490 c 0
 724 490 737 476 728 462 c 0
 725 457 718 450 708 442 c 2
 622 371 l 1
 636 347 643 321 643 292 c 0
 643 278 641 264 638 249 c 0
 628 203 606 163 572 129 c 1
 627 58 l 2
 634 49 637 41 637 34 c 0
 637 22 624 10 612 10 c 0
 603 10 595 15 587 25 c 2
 531 95 l 1
 489 67 446 53 401 53 c 0
 356 53 319 67 288 95 c 1
 202 25 l 2
 190 15 180 10 171 10 c 0
 159 10 146 24 155 38 c 0
 158 43 165 50 175 58 c 2
 261 130 l 1
 247 154 240 180 240 209 c 0
 240 268 264 323 312 372 c 1
 257 442 l 2
 250 451 247 460 247 467 c 0
595 284 m 0
 595 352 543 400 475 400 c 0
 385 400 308 325 292 249 c 0
 289 238 288 227 288 216 c 0
 288 148 341 100 409 100 c 0
 450 100 489 115 524 144 c 0
 557 171 577 196 584 221 c 0
 591 246 595 267 595 284 c 0
EndSplineSet
EndChar

StartChar: yen
Encoding: 165 165 101
Width: 667
GlyphClass: 2
Flags: W
HStem: 0 21G<287 384.354> 147 71<157 319 427 590> 295 71<188 305 520 620> 674 20G<149 270.412 669.5 816>
LayerCount: 2
Fore
SplineSet
520 366 m 1
 636 366 l 1
 620 295 l 1
 455 295 l 1
 439 276 l 1
 427 218 l 1
 604 218 l 1
 590 147 l 1
 412 147 l 1
 380 0 l 1
 287 0 l 1
 319 147 l 1
 142 147 l 1
 157 218 l 1
 333 218 l 1
 346 278 l 1
 338 295 l 1
 173 295 l 1
 188 366 l 1
 305 366 l 1
 149 694 l 1
 261 694 l 1
 397 405 l 2
 402 394 407 381 413 366 c 1
 428 366 l 1
 522 478 621 585 718 694 c 1
 816 694 l 1
 520 366 l 1
EndSplineSet
EndChar

StartChar: brokenbar
Encoding: 166 166 102
Width: 278
GlyphClass: 2
Flags: W
VStem: 188 46<308.063 374.727> 265 46<680.273 748.515>
LayerCount: 2
Fore
SplineSet
234 341 m 2
 229 318 220 307 205 307 c 0
 189 307 183 319 188 343 c 2
 265 714 l 2
 270 738 280 750 295 750 c 0
 311 750 316 737 311 712 c 2
 234 341 l 2
196 157 m 2
 119 -214 l 2
 114 -238 104 -250 89 -250 c 0
 73 -250 68 -237 73 -212 c 2
 150 159 l 2
 155 182 164 193 179 193 c 0
 195 193 202 175 196 157 c 2
EndSplineSet
EndChar

StartChar: section
Encoding: 167 167 103
Width: 528
GlyphClass: 2
Flags: W
HStem: -212 77<173.706 305.115> 635 77<328.885 460.109>
VStem: 63 86<-109.999 -35> 94 86<228.932 349.282> 184 86<467.206 578.539> 364 86<-78.6279 32.7697> 455 86<152.27 271.068> 485 86<535 610.332>
LayerCount: 2
Fore
SplineSet
413 712 m 0xdc
 498 712 571 658 571 572 c 0
 571 560 570 548 567 535 c 1
 482 535 l 1
 484 544 485 552 485 559 c 0xdd
 485 606 446 635 399 635 c 0
 368 635 338 624 311 600 c 0
 284 576 270 549 270 518 c 0
 270 485 294 456 342 431 c 2
 432 385 l 2
 505 348 541 298 541 233 c 0
 541 222 540 211 537 200 c 0
 525 141 491 94 435 57 c 1
 445 38 450 17 450 -4 c 0
 450 -64 421 -116 364 -161 c 0
 320 -195 272 -212 221 -212 c 0
 135 -212 63 -156 63 -72 c 0
 63 -60 64 -48 67 -35 c 1
 152 -35 l 1
 150 -44 149 -52 149 -59 c 0xee
 149 -106 188 -135 235 -135 c 0
 266 -135 296 -124 323 -100 c 0
 350 -76 364 -49 364 -18 c 0
 364 15 340 44 292 69 c 2
 202 115 l 2
 130 152 94 202 94 267 c 0
 94 306 107 344 134 381 c 0
 152 405 174 425 199 442 c 1
 189 461 184 482 184 503 c 0
 184 564 213 616 270 661 c 0
 314 695 362 712 413 712 c 0xdc
382 308 m 2
 293 354 l 2
 277 362 261 373 244 386 c 1
 201 361 180 326 180 281 c 0
 180 246 204 217 252 192 c 2
 341 146 l 2
 359 137 375 126 390 113 c 1
 433 140 455 175 455 219 c 0xde
 455 254 431 283 382 308 c 2
EndSplineSet
EndChar

StartChar: dieresis
Encoding: 168 168 104
Width: 500
GlyphClass: 2
Flags: W
HStem: 571 80<275 342 417 484>
VStem: 257 245
AnchorPoint: "top" 267 553 mark 0
LayerCount: 2
Fore
SplineSet
484 571 m 1
 398 571 l 1
 417 651 l 1
 502 651 l 1
 484 571 l 1
342 571 m 1
 257 571 l 1
 275 651 l 1
 361 651 l 1
 342 571 l 1
EndSplineSet
EndChar

StartChar: copyright
Encoding: 169 169 105
Width: 694
GlyphClass: 2
Flags: W
HStem: 0 45<245.119 474.975> 114 47<336.602 493.45> 533 48<408.756 561.61> 649 45<366.763 594.922>
VStem: 65 47<178.499 391.698> 229 63<209.514 394.114> 730 53<320.406 514.327>
LayerCount: 2
Fore
SplineSet
348 0 m 0
 252 0 177 34 123 102 c 0
 84 151 65 207 65 271 c 0
 65 296 68 321 74 348 c 0
 95 443 145 524 226 592 c 0
 307 660 397 694 494 694 c 0
 591 694 666 660 719 592 c 0
 762 538 783 488 783 443 c 0
 783 424 778 391 768 346 c 0
 747 251 697 170 616 102 c 0
 535 34 445 0 348 0 c 0
680 561 m 0
 633 620 568 649 485 649 c 0
 400 649 323 619 252 560 c 0
 181 501 137 430 119 346 c 0
 114 323 112 300 112 279 c 0
 112 224 129 175 162 133 c 0
 208 74 273 45 356 45 c 0
 441 45 519 75 590 134 c 0
 661 193 705 265 723 348 c 0
 728 371 730 393 730 414 c 0
 730 469 713 518 680 561 c 0
583 498 m 1
 550 521 517 533 482 533 c 0
 388 533 317 431 298 346 c 0
 294 328 292 311 292 294 c 0
 292 266 298 240 310 216 c 0
 329 179 360 161 403 161 c 0
 443 161 486 175 532 203 c 1
 526 150 l 1
 482 126 438 114 394 114 c 0
 333 114 288 137 259 184 c 0
 239 215 229 251 229 291 c 0
 229 309 231 328 235 348 c 0
 248 411 278 464 325 509 c 0
 374 557 430 581 491 581 c 0
 531 581 569 573 605 557 c 1
 583 498 l 1
EndSplineSet
EndChar

StartChar: ordfeminine
Encoding: 170 170 106
Width: 372
GlyphClass: 2
Flags: W
HStem: 311 52<141.007 374.868> 385 50<207.024 339.861> 668 48<236.296 385.28>
VStem: 392 73<568.958 660.863>
LayerCount: 2
Fore
SplineSet
348 716 m 0
 411 716 465 680 465 620 c 0
 465 611 464 603 462 594 c 2
 419 392 l 1
 350 392 l 1
 354 413 l 1
 317 394 271 385 217 385 c 0
 164 385 126 419 138 475 c 0
 152 543 284 567 385 568 c 1
 390 593 392 610 392 617 c 0
 392 651 374 668 339 668 c 0
 296 668 251 656 204 631 c 1
 210 685 l 1
 256 706 302 716 348 716 c 0
336 311 m 2
 170 311 l 2
 145 311 135 320 140 338 c 0
 144 355 157 363 180 363 c 2
 346 363 l 2
 362 363 380 354 376 337 c 0
 373 320 359 311 336 311 c 2
204 474 m 0
 199 445 236 435 268 435 c 0
 327 435 360 452 367 487 c 2
 376 525 l 1
 267 519 209 502 204 474 c 0
EndSplineSet
EndChar

StartChar: guillemotleft
Encoding: 171 171 107
Width: 500
GlyphClass: 2
Flags: W
HStem: 0 21G<210.727 283 373.727 447>
VStem: 216 67<0 26.5517> 379 68<0 26.5517>
LayerCount: 2
Fore
SplineSet
406 218 m 1
 447 0 l 1
 379 0 l 1
 321 220 l 1
 471 439 l 1
 540 439 l 1
 406 218 l 1
242 218 m 1
 283 0 l 1
 216 0 l 1
 158 220 l 1
 308 439 l 1
 377 439 l 1
 242 218 l 1
EndSplineSet
Substitution2: "'locl' Localized Forms in Greek lookup 32-1" guillemotleft.gr
Substitution2: "'cv04' Character Variants 04 in Greek lookup 24 subtable" guillemotleft.gr
Substitution2: "'cv03' Character Variants 03 in Cyrillic lookup 23-1" guillemotleft.cyr
EndChar

StartChar: logicalnot
Encoding: 172 172 108
Width: 778
GlyphClass: 2
Flags: W
HStem: 324 46<130.192 743>
VStem: 706 47<130.33 184.333>
LayerCount: 2
Fore
SplineSet
753 152 m 2
 750 137 741 130 726 130 c 0
 709 130 703 138 706 154 c 2
 743 324 l 1
 150 324 l 2
 137 324 127 334 130 348 c 0
 134 363 144 370 159 370 c 2
 776 370 l 2
 792 370 798 362 795 346 c 2
 753 152 l 2
EndSplineSet
EndChar

StartChar: uni00AD
Encoding: 173 173 109
Width: 333
GlyphClass: 2
Flags: W
HStem: 193 58<64 317>
VStem: 51 279
LayerCount: 2
Fore
SplineSet
317 193 m 1
 51 193 l 1
 64 251 l 1
 330 251 l 1
 317 193 l 1
EndSplineSet
EndChar

StartChar: registered
Encoding: 174 174 110
Width: 694
GlyphClass: 2
Flags: W
HStem: 0 45<245.119 474.975> 324 47<336 419> 524 43<369 528.86> 649 45<366.763 594.922>
VStem: 65 47<178.499 391.698> 730 53<320.406 514.327>
LayerCount: 2
Fore
SplineSet
348 0 m 0
 252 0 177 34 123 102 c 0
 84 151 65 207 65 271 c 0
 65 296 68 321 74 348 c 0
 95 443 145 524 226 592 c 0
 307 660 397 694 494 694 c 0
 591 694 666 660 719 592 c 0
 762 538 783 488 783 443 c 0
 783 424 778 391 768 346 c 0
 747 251 697 170 616 102 c 0
 535 34 445 0 348 0 c 0
680 561 m 0
 633 620 568 649 485 649 c 0
 400 649 323 619 252 560 c 0
 181 501 137 430 119 346 c 0
 114 323 112 300 112 279 c 0
 112 224 129 175 162 133 c 0
 208 74 273 45 356 45 c 0
 441 45 519 75 590 134 c 0
 661 193 705 265 723 348 c 0
 728 371 730 393 730 414 c 0
 730 469 713 518 680 561 c 0
608 467 m 0
 608 398 539 350 478 332 c 1
 557 128 l 1
 493 128 l 1
 419 324 l 1
 326 324 l 1
 284 128 l 1
 222 128 l 1
 316 567 l 1
 469 567 l 2
 538 567 608 532 608 467 c 0
456 524 m 2
 369 524 l 1
 336 371 l 1
 421 371 l 2
 484 371 537 399 548 449 c 0
 559 500 509 524 456 524 c 2
EndSplineSet
EndChar

StartChar: macron
Encoding: 175 175 111
Width: 500
GlyphClass: 2
Flags: W
HStem: 567 64<204 550>
AnchorPoint: "top" 271 515 mark 0
LayerCount: 2
Fore
SplineSet
550 567 m 1
 189 567 l 1
 204 631 l 1
 565 631 l 1
 550 567 l 1
EndSplineSet
EndChar

StartChar: degree
Encoding: 176 176 112
Width: 375
GlyphClass: 2
Flags: W
HStem: 417 47<230.861 349.038> 647 47<261.018 380.161>
VStem: 164 283<541 576>
LayerCount: 2
Fore
SplineSet
335 694 m 0
 399 694 447 649 447 585 c 0
 447 541 429 502 395 468 c 0
 361 434 322 417 278 417 c 0
 214 417 164 462 164 526 c 0
 164 576 185 619 228 654 c 0
 261 681 296 694 335 694 c 0
326 647 m 0
 271 647 224 603 214 555 c 0
 202 502 237 464 286 464 c 0
 341 464 387 509 397 557 c 0
 410 609 375 647 326 647 c 0
EndSplineSet
EndChar

StartChar: plusminus
Encoding: 177 177 113
Width: 778
GlyphClass: 2
Flags: W
HStem: 0 47<60.1796 375 423 725.687> 309 48<126.313 431 488 791.687> 646 20G<522.5 538.5>
LayerCount: 2
Fore
SplineSet
751 309 m 2
 479 309 l 1
 423 47 l 1
 694 47 l 2
 717 47 730 43 726 23 c 0
 723 8 709 0 685 0 c 2
 93 0 l 2
 71 0 55 5 60 25 c 0
 64 40 78 47 102 47 c 2
 375 47 l 1
 431 309 l 1
 159 309 l 2
 136 309 122 314 126 334 c 0
 129 349 143 357 167 357 c 2
 441 357 l 1
 499 630 l 2
 504 654 515 666 530 666 c 0
 547 666 552 654 547 629 c 2
 488 357 l 1
 759 357 l 2
 782 357 796 352 792 332 c 0
 789 317 775 309 751 309 c 2
EndSplineSet
EndChar

StartChar: two.superior
Encoding: 178 178 114
Width: 354
GlyphClass: 2
Flags: W
HStem: 310 49<179 390> 671 45<239.413 365.687>
LayerCount: 2
Fore
SplineSet
321 716 m 0
 393 716 451 678 451 610 c 0
 451 602 450 594 448 585 c 0
 442 556 424 529 395 506 c 0
 357 474 335 464 282 429 c 0
 231 394 197 371 179 359 c 1
 400 359 l 1
 390 310 l 1
 101 310 l 1
 110 354 l 1
 165 393 220 432 278 469 c 0
 283 472 299 485 326 506 c 0
 358 530 377 556 383 585 c 0
 394 641 356 671 303 671 c 0
 276 671 254 664 237 648 c 0
 220 632 203 608 186 576 c 1
 180 584 167 604 159 616 c 1
 196 683 250 716 321 716 c 0
EndSplineSet
EndChar

StartChar: three.superior
Encoding: 179 179 115
Width: 359
GlyphClass: 2
Flags: W
HStem: 296 44<167.323 310.135> 500 44<233 292> 675 41<249.029 374.66>
LayerCount: 2
Fore
SplineSet
445 637 m 0
 445 585 394 542 350 522 c 1
 397 505 421 477 421 438 c 0
 421 399 399 364 356 333 c 0
 323 308 285 296 242 296 c 0
 182 296 136 318 105 361 c 1
 125 406 l 1
 148 366 190 340 248 340 c 0
 300 340 338 377 348 421 c 0
 353 434 351 451 342 472 c 0
 335 491 313 500 278 500 c 2
 223 500 l 1
 233 544 l 1
 292 548 l 1
 331 556 370 585 378 624 c 0
 385 658 367 675 322 675 c 0
 267 675 225 644 198 609 c 1
 175 648 l 1
 218 693 270 716 330 716 c 0
 386 716 445 690 445 637 c 0
EndSplineSet
EndChar

StartChar: acute
Encoding: 180 180 116
Width: 500
GlyphClass: 2
Flags: W
HStem: 527 167
VStem: 286 259
LayerCount: 2
Fore
SplineSet
356 527 m 1
 286 527 l 1
 458 694 l 1
 545 694 l 1
 356 527 l 1
EndSplineSet
EndChar

StartChar: uni00B5
Encoding: 181 181 117
Width: 517
GlyphClass: 2
Flags: W
HStem: -13 62<186.388 305.717> -2 21G<354 440.215> 424 20G<169.768 258 440.764 530>
LayerCount: 2
Fore
SplineSet
436 -2 m 1x60
 354 -2 l 1x60
 363 40 l 1
 313 5 254 -13 187 -13 c 0
 177 -13 169 -13 162 -12 c 1
 124 -194 l 1
 39 -194 l 1
 174 444 l 1
 258 444 l 1
 188 114 l 2
 186 102 185 90 185 78 c 0
 185 59 206 49 247 49 c 0xa0
 320 49 371 93 384 156 c 2
 445 444 l 1
 530 444 l 1
 436 -2 l 1x60
EndSplineSet
EndChar

StartChar: paragraph
Encoding: 182 182 118
Width: 611
GlyphClass: 2
Flags: W
HStem: 646 48<530 591 638 724.687>
LayerCount: 2
Fore
SplineSet
685 646 m 2
 638 646 l 1
 468 -158 l 2
 463 -182 453 -194 438 -194 c 0
 421 -194 416 -182 421 -157 c 2
 591 646 l 1
 530 646 l 1
 360 -158 l 2
 355 -182 344 -194 329 -194 c 0
 313 -194 308 -182 313 -157 c 2
 394 226 l 1
 291 232 218 267 175 332 c 0
 158 357 149 386 149 418 c 0
 149 432 151 447 154 462 c 0
 168 528 204 584 263 628 c 0
 322 672 385 694 454 694 c 2
 693 694 l 2
 716 694 729 689 725 669 c 0
 722 654 708 646 685 646 c 2
EndSplineSet
EndChar

StartChar: periodcentered
Encoding: 183 183 119
Width: 778
GlyphClass: 2
Flags: W
HStem: 306 83<429 496>
VStem: 411 103
AnchorPoint: "topright" 294 342 basechar 0
LayerCount: 2
Fore
SplineSet
496 306 m 1
 411 306 l 1
 429 389 l 1
 514 389 l 1
 496 306 l 1
EndSplineSet
Substitution2: "'locl' Localized Forms in Greek lookup 32-1" anoteleia
Substitution2: "'cv04' Character Variants 04 in Greek lookup 24 subtable" anoteleia
EndChar

StartChar: cedilla
Encoding: 184 184 120
Width: 444
GlyphClass: 2
Flags: W
HStem: -192 168
VStem: 101 177
AnchorPoint: "bottom" 236 4 mark 0
LayerCount: 2
Fore
SplineSet
176 -192 m 1
 101 -192 l 1
 211 -24 l 1
 278 -24 l 1
 176 -192 l 1
EndSplineSet
EndChar

StartChar: one.superior
Encoding: 185 185 121
Width: 369
GlyphClass: 2
Flags: W
HStem: 310 41<141 229 292 371> 635 43<206 289.915> 696 20G<332.5 368>
VStem: 133 246
LayerCount: 2
Fore
SplineSet
371 310 m 1
 133 310 l 1
 141 351 l 1
 229 351 l 1
 291 648 l 1
 268 641 236 636 197 635 c 1
 206 678 l 1
 269 680 316 693 349 716 c 1
 368 716 l 1
 292 351 l 1
 379 351 l 1
 371 310 l 1
EndSplineSet
EndChar

StartChar: ordmasculine
Encoding: 186 186 122
Width: 419
GlyphClass: 2
Flags: W
HStem: 311 52<128.516 433.612> 385 52<237.335 374.005> 667 49<276.886 416.079>
VStem: 137 74<463.789 596.634> 443 71<507.057 640.363>
LayerCount: 2
Fore
SplineSet
514 581 m 0
 514 468 404 385 292 385 c 0
 210 385 137 435 137 516 c 0
 137 574 165 624 220 667 c 0
 263 700 310 716 361 716 c 0
 442 716 514 664 514 581 c 0
127 334 m 0
 127 351 149 363 168 363 c 2
 404 363 l 2
 420 363 438 354 435 337 c 0
 431 320 417 311 394 311 c 2
 158 311 l 2
 137 311 127 319 127 334 c 0
443 586 m 0
 443 638 403 667 351 667 c 0
 271 667 211 601 211 520 c 0
 211 468 249 437 301 437 c 0
 375 437 427 491 440 555 c 0
 442 566 443 576 443 586 c 0
EndSplineSet
EndChar

StartChar: guillemotright
Encoding: 187 187 123
Width: 500
GlyphClass: 2
Flags: W
HStem: 0 21G<53 135.853 216 298.853>
VStem: 146 68<412.78 439> 310 67<412.78 439>
LayerCount: 2
Fore
SplineSet
285 0 m 1
 216 0 l 1
 352 220 l 1
 310 439 l 1
 377 439 l 1
 436 218 l 1
 285 0 l 1
122 0 m 1
 53 0 l 1
 188 220 l 1
 146 439 l 1
 214 439 l 1
 273 218 l 1
 122 0 l 1
EndSplineSet
Substitution2: "'locl' Localized Forms in Greek lookup 32-1" guillemotright.gr
Substitution2: "'cv04' Character Variants 04 in Greek lookup 24 subtable" guillemotright.gr
Substitution2: "'cv03' Character Variants 03 in Cyrillic lookup 23-1" guillemotright.cyr
EndChar

StartChar: onequarter
Encoding: 188 188 124
Width: 788
GlyphClass: 3
Flags: W
HStem: 0 21G<589 657.314> 102 43<500 610 684 745> 307 41<142 231 295 375> 635 42<208 292.125> 696 20G<336.5 373>
LayerCount: 2
Fore
SplineSet
265 20 m 1
 209 20 l 1
 748 674 l 1
 804 674 l 1
 265 20 l 1
745 102 m 1
 675 102 l 1
 653 0 l 1
 589 0 l 1
 610 102 l 1
 423 102 l 1
 432 143 l 1
 667 398 l 1
 738 398 l 1
 684 145 l 1
 755 145 l 1
 745 102 l 1
375 307 m 1
 133 307 l 1
 142 348 l 1
 231 348 l 1
 294 647 l 1
 270 640 238 636 198 635 c 1
 208 677 l 1
 272 679 320 692 353 716 c 1
 373 716 l 1
 295 348 l 1
 384 348 l 1
 375 307 l 1
500 145 m 1
 625 145 l 1
 666 340 l 1
 642 305 587 240 500 145 c 1
EndSplineSet
Ligature2: "'frac' Diagonal Fractions lookup 3 subtable" one fraction four
Ligature2: "'frac' Diagonal Fractions lookup 3 subtable" one slash four
EndChar

StartChar: onehalf
Encoding: 189 189 125
Width: 788
GlyphClass: 3
Flags: W
HStem: 0 50<509 723> 307 41<142 231 295 375> 364 46<570.715 697.702> 635 42<208 292.125> 696 20G<336.5 373>
VStem: 718 67<238.306 344.658>
LayerCount: 2
Fore
SplineSet
655 410 m 0
 728 410 785 374 785 304 c 0
 785 263 766 228 728 197 c 0
 713 186 700 176 688 167 c 0
 687 167 675 159 651 144 c 0
 639 137 592 105 509 49 c 1
 575 49 l 2
 578 49 582 49 587 50 c 2
 734 50 l 1
 723 0 l 1
 431 0 l 1
 441 44 l 1
 546 119 l 1
 610 161 l 2
 620 167 636 179 659 197 c 0
 682 216 718 259 718 296 c 0
 718 340 682 364 636 364 c 0
 608 364 585 356 568 340 c 0
 551 324 534 300 517 267 c 1
 514 274 508 282 501 291 c 0
 501 292 497 298 490 308 c 1
 529 376 584 410 655 410 c 0
226 20 m 1
 169 20 l 1
 708 674 l 1
 765 674 l 1
 226 20 l 1
375 307 m 1
 133 307 l 1
 142 348 l 1
 231 348 l 1
 294 647 l 1
 270 640 238 636 198 635 c 1
 208 677 l 1
 272 679 320 692 353 716 c 1
 373 716 l 1
 295 348 l 1
 384 348 l 1
 375 307 l 1
EndSplineSet
Ligature2: "'frac' Diagonal Fractions lookup 3 subtable" one fraction two
Ligature2: "'frac' Diagonal Fractions lookup 3 subtable" one slash two
EndChar

StartChar: threequarters
Encoding: 190 190 126
Width: 788
GlyphClass: 3
Flags: W
HStem: -0 21G<589 657.314> 102 43<500 610 684 745> 293 44<198.934 342.191> 498 45<264 324> 654 20G<731.517 804> 674 42<279.425 407.373>
VStem: 383 71<376.916 484.509>
LayerCount: 2
Fore
SplineSet
265 20 m 1xfa
 209 20 l 1
 748 674 l 1
 804 674 l 1
 265 20 l 1xfa
362 716 m 0xf6
 418 716 478 689 478 637 c 0
 478 589 446 550 383 521 c 1
 430 504 454 475 454 436 c 0
 454 396 432 361 389 330 c 0
 355 305 316 293 273 293 c 0
 212 293 166 315 135 359 c 1
 155 403 l 1
 178 363 222 337 280 337 c 0
 335 337 383 384 383 434 c 0
 383 477 359 498 311 498 c 2
 255 498 l 1
 264 543 l 1
 324 547 l 2
 363 554 403 585 411 623 c 0
 418 657 399 674 354 674 c 0
 298 674 256 644 229 608 c 1
 207 647 l 1
 250 693 301 716 362 716 c 0xf6
745 102 m 1
 675 102 l 1
 653 -0 l 1
 589 -0 l 1
 610 102 l 1
 423 102 l 1
 432 143 l 1
 667 398 l 1
 738 398 l 1
 684 145 l 1
 755 145 l 1
 745 102 l 1
500 145 m 1
 625 145 l 1
 666 340 l 1
 642 305 587 240 500 145 c 1
EndSplineSet
Ligature2: "'frac' Diagonal Fractions lookup 3 subtable" three fraction four
Ligature2: "'frac' Diagonal Fractions lookup 3 subtable" three slash four
EndChar

StartChar: questiondown
Encoding: 191 191 127
Width: 472
GlyphClass: 3
Flags: W
HStem: -205 68<134.573 302.342> 410 90<281 352>
VStem: 41 84<-126.244 -6.81559>
LayerCount: 2
Fore
SplineSet
352 410 m 1
 263 410 l 1
 281 500 l 1
 370 500 l 1
 352 410 l 1
180 -205 m 0
 92 -205 41 -169 41 -88 c 0
 41 -75 42 -61 45 -47 c 0
 55 0 80 41 120 74 c 0
 185 128 225 192 240 267 c 2
 253 327 l 1
 326 327 l 1
 318 291 l 2
 294 179 246 90 174 25 c 0
 144 -2 125 -35 125 -83 c 0
 125 -119 148 -137 193 -137 c 0
 252 -137 312 -118 372 -80 c 1
 383 -151 l 1
 314 -187 247 -205 180 -205 c 0
EndSplineSet
Ligature2: "'dlig' Discretionary Ligatures lookup 13 subtable" question quoteleft
Ligature2: "'dlig' Discretionary Ligatures lookup 13 subtable" question grave
EndChar

StartChar: Agrave
Encoding: 192 192 128
Width: 667
GlyphClass: 2
Flags: W
HStem: 0 21G<25 118.782 536.733 639> 202 64<263 496> 676 20G<421.276 529.247>
AnchorPoint: "topright" 641 430 basechar 0
AnchorPoint: "bottom" 584 7 basechar 0
AnchorPoint: "top" 504 909 basechar 0
AnchorPoint: "below" 358 -20 basechar 0
AnchorPoint: "overlap" 399 339 basechar 0
LayerCount: 2
Fore
SplineSet
494 739 m 1
 314 868 l 1
 437 868 l 1
 594 739 l 1
 494 739 l 1
540 0 m 1
 507 202 l 1
 226 202 l 1
 107 0 l 1
 25 0 l 1
 433 696 l 1
 526 696 l 1
 639 0 l 1
 540 0 l 1
452 605 m 1
 410 516 333 388 263 266 c 1
 496 266 l 1
 461 516 l 2
 456 555 453 584 452 605 c 1
EndSplineSet
Position2: "'cpsp' Capital Spacing lookup 0 subtable" dx=7 dy=0 dh=14 dv=0
EndChar

StartChar: Aacute
Encoding: 193 193 129
Width: 667
GlyphClass: 2
Flags: W
HStem: 0 21G<25 118.782 537.733 640> 202 64<263 497> 676 20G<422.247 530.247>
AnchorPoint: "topright" 641 430 basechar 0
AnchorPoint: "bottom" 611 7 basechar 0
AnchorPoint: "top" 504 909 basechar 0
AnchorPoint: "below" 355 -21 basechar 0
AnchorPoint: "overlap" 399 339 basechar 0
LayerCount: 2
Fore
SplineSet
485 739 m 1
 382 739 l 1
 593 868 l 1
 719 868 l 1
 485 739 l 1
541 0 m 1
 508 202 l 1
 226 202 l 1
 107 0 l 1
 25 0 l 1
 434 696 l 1
 527 696 l 1
 640 0 l 1
 541 0 l 1
452 605 m 1
 409 516 333 388 263 266 c 1
 497 266 l 1
 462 516 l 2
 457 555 453 584 452 605 c 1
EndSplineSet
Position2: "'cpsp' Capital Spacing lookup 0 subtable" dx=7 dy=0 dh=14 dv=0
EndChar

StartChar: Acircumflex
Encoding: 194 194 130
Width: 667
GlyphClass: 2
Flags: W
HStem: 0 21G<25 118.782 536.733 639> 202 64<263 496> 676 20G<421.276 529.247>
AnchorPoint: "topright" 641 430 basechar 0
AnchorPoint: "bottom" 611 7 basechar 0
AnchorPoint: "top" 514 909 basechar 0
AnchorPoint: "below" 351 -20 basechar 0
AnchorPoint: "overlap" 399 339 basechar 0
LayerCount: 2
Fore
SplineSet
581 729 m 1
 507 824 l 1
 393 729 l 1
 322 729 l 1
 485 870 l 1
 547 870 l 1
 649 729 l 1
 581 729 l 1
540 0 m 1
 507 202 l 1
 226 202 l 1
 107 0 l 1
 25 0 l 1
 433 696 l 1
 526 696 l 1
 639 0 l 1
 540 0 l 1
452 605 m 1
 410 516 333 388 263 266 c 1
 496 266 l 1
 461 516 l 2
 456 555 453 584 452 605 c 1
EndSplineSet
Position2: "'cpsp' Capital Spacing lookup 0 subtable" dx=7 dy=0 dh=14 dv=0
EndChar

StartChar: Atilde
Encoding: 195 195 131
Width: 667
GlyphClass: 2
Flags: W
HStem: 0 21G<25 118.782 536.832 639> 202 64<263 497> 675 20G<422.23 529.252> 729 69<520.214 600.38> 787 68<401.591 481.299>
VStem: 318 69<729 774.085> 615 68<810.276 855>
AnchorPoint: "topright" 641 430 basechar 0
AnchorPoint: "bottom" 611 7 basechar 0
AnchorPoint: "top" 504 909 basechar 0
AnchorPoint: "below" 351 -20 basechar 0
AnchorPoint: "overlap" 399 339 basechar 0
LayerCount: 2
Fore
SplineSet
556 729 m 0xf6
 539 729 518 739 492 758 c 0
 466 777 447 787 435 787 c 0xee
 413 787 397 768 387 729 c 1
 318 729 l 1xf6
 328 770 345 801 370 823 c 0
 395 845 420 855 446 855 c 0xee
 463 855 485 846 510 827 c 0
 535 808 554 798 566 798 c 0xf6
 589 798 605 817 615 855 c 1
 683 855 l 1xee
 674 814 657 784 632 762 c 0
 607 740 582 729 556 729 c 0xf6
540 0 m 1
 508 202 l 1
 226 202 l 1
 107 0 l 1
 25 0 l 1
 434 695 l 1
 526 695 l 1
 639 0 l 1
 540 0 l 1
452 604 m 1
 437 573 407 518 362 439 c 0
 340 400 307 343 263 266 c 1
 497 266 l 1
 462 516 l 2
 457 554 453 583 452 604 c 1
EndSplineSet
Position2: "'cpsp' Capital Spacing lookup 0 subtable" dx=7 dy=0 dh=14 dv=0
EndChar

StartChar: Adieresis
Encoding: 196 196 132
Width: 667
GlyphClass: 2
Flags: W
HStem: 0 21G<25 118.782 536.733 639> 202 63<263 496> 675 20G<421.259 529.252> 729 87<375 444 547 616>
AnchorPoint: "topright" 641 430 basechar 0
AnchorPoint: "bottom" 611 7 basechar 0
AnchorPoint: "top" 504 909 basechar 0
AnchorPoint: "below" 351 -20 basechar 0
AnchorPoint: "overlap" 399 339 basechar 0
LayerCount: 2
Fore
SplineSet
616 729 m 1
 528 729 l 1
 547 816 l 1
 634 816 l 1
 616 729 l 1
444 729 m 1
 357 729 l 1
 375 816 l 1
 462 816 l 1
 444 729 l 1
540 0 m 1
 507 202 l 1
 226 202 l 1
 107 0 l 1
 25 0 l 1
 433 695 l 1
 526 695 l 1
 639 0 l 1
 540 0 l 1
452 604 m 1
 437 573 407 518 362 439 c 2
 263 265 l 1
 496 265 l 1
 461 515 l 2
 456 554 453 583 452 604 c 1
EndSplineSet
Position2: "'cpsp' Capital Spacing lookup 0 subtable" dx=7 dy=0 dh=14 dv=0
EndChar

StartChar: Aring
Encoding: 197 197 133
Width: 667
GlyphClass: 2
Flags: W
HStem: 0 21G<25 118.782 536.733 639> 202 64<263 496> 688 8<433 526> 808 54<455.915 541.49>
VStem: 381 230<729 817>
AnchorPoint: "topright" 641 430 basechar 0
AnchorPoint: "bottom" 601 7 basechar 0
AnchorPoint: "top" 504 909 basechar 0
AnchorPoint: "below" 351 -20 basechar 0
AnchorPoint: "overlap" 399 339 basechar 0
LayerCount: 2
Fore
SplineSet
611 788 m 0
 611 729 541 688 478 688 c 0
 428 688 381 714 381 761 c 0
 381 817 449 862 514 862 c 0
 563 862 611 835 611 788 c 0
540 0 m 1
 507 202 l 1
 226 202 l 1
 107 0 l 1
 25 0 l 1
 433 696 l 1
 526 696 l 1
 639 0 l 1
 540 0 l 1
504 808 m 0
 473 808 455 797 450 774 c 0
 445 749 466 742 488 742 c 0
 519 742 536 753 541 776 c 0
 547 798 526 808 504 808 c 0
452 605 m 1
 410 516 333 388 263 266 c 1
 496 266 l 1
 461 516 l 2
 456 554 453 584 452 605 c 1
EndSplineSet
Position2: "'cpsp' Capital Spacing lookup 0 subtable" dx=7 dy=0 dh=14 dv=0
EndChar

StartChar: AE
Encoding: 198 198 134
Width: 861
GlyphClass: 2
Flags: W
HStem: 0 77<527 818> 219 64<285 461> 326 68<594 847> 623 71<497 548 643 937>
AnchorPoint: "top" 709 749 basechar 0
AnchorPoint: "below" 532 -25 basechar 0
LayerCount: 2
Fore
SplineSet
937 622 m 1
 765 622 l 2
 757 623 751 623 747 623 c 2
 643 623 l 1
 594 394 l 1
 862 394 l 1
 847 326 l 1
 579 326 l 1
 527 77 l 1
 690 77 l 2
 694 77 700 77 708 78 c 2
 835 78 l 1
 818 0 l 1
 415 0 l 1
 461 219 l 1
 245 219 l 1
 109 0 l 1
 25 0 l 1
 458 694 l 1
 953 694 l 1
 937 622 l 1
497 623 m 1
 285 283 l 1
 475 283 l 1
 548 623 l 1
 497 623 l 1
EndSplineSet
Position2: "'cpsp' Capital Spacing lookup 0 subtable" dx=7 dy=0 dh=14 dv=0
EndChar

StartChar: Ccedilla
Encoding: 199 199 135
Width: 639
GlyphClass: 2
Flags: W
HStem: -24 72<321.489 522.298> 645 71<434.979 631.508>
AnchorPoint: "topright" 741 430 basechar 0
AnchorPoint: "top" 559 749 basechar 0
AnchorPoint: "below" 399 -245 basechar 0
LayerCount: 2
Fore
SplineSet
688 591 m 1
 639 627 587 645 531 645 c 0
 460 645 395 612 336 546 c 0
 284 487 251 420 236 345 c 0
 227 296 226 248 234 201 c 0
 248 116 309 48 405 48 c 0
 446 48 481 53 511 63 c 0
 536 72 568 88 607 112 c 1
 596 33 l 1
 557 12 524 -3 497 -11 c 0
 468 -20 432 -24 390 -24 c 0
 327 -24 274 -6 231 29 c 0
 164 82 131 158 131 257 c 0
 131 286 134 316 141 347 c 0
 162 446 209 531 282 602 c 0
 360 678 447 716 544 716 c 0
 605 716 664 704 723 680 c 1
 688 591 l 1
291 -214 m 1
 214 -214 l 1
 326 -40 l 1
 395 -40 l 1
 291 -214 l 1
EndSplineSet
Position2: "'cpsp' Capital Spacing lookup 0 subtable" dx=7 dy=0 dh=14 dv=0
EndChar

StartChar: Egrave
Encoding: 200 200 136
Width: 597
GlyphClass: 2
Flags: W
HStem: 0 77<205 555> 326 68<273 584> 620 73<320 672>
AnchorPoint: "topright" 691 430 basechar 0
AnchorPoint: "bottom" 412 2 basechar 0
AnchorPoint: "top" 504 909 basechar 0
AnchorPoint: "below" 362 -22 basechar 0
AnchorPoint: "overlap" 399 357 basechar 0
LayerCount: 2
Fore
SplineSet
461 739 m 1
 281 868 l 1
 404 868 l 1
 561 739 l 1
 461 739 l 1
672 620 m 1
 489 620 l 2
 485 620 479 620 471 621 c 2
 320 621 l 1
 273 394 l 1
 598 394 l 1
 584 326 l 1
 258 326 l 1
 205 77 l 1
 407 77 l 2
 411 77 417 77 425 78 c 2
 571 78 l 1
 555 0 l 1
 93 0 l 1
 240 693 l 1
 688 693 l 1
 672 620 l 1
EndSplineSet
Position2: "'cpsp' Capital Spacing lookup 0 subtable" dx=7 dy=0 dh=14 dv=0
EndChar

StartChar: Eacute
Encoding: 201 201 137
Width: 597
GlyphClass: 2
Flags: W
HStem: 0 77<205 555> 326 68<273 584> 620 73<320 672>
AnchorPoint: "topright" 691 430 basechar 0
AnchorPoint: "bottom" 402 2 basechar 0
AnchorPoint: "top" 504 909 basechar 0
AnchorPoint: "below" 352 -22 basechar 0
AnchorPoint: "overlap" 399 358 basechar 0
LayerCount: 2
Fore
SplineSet
451 739 m 1
 348 739 l 1
 560 868 l 1
 686 868 l 1
 451 739 l 1
672 620 m 1
 489 620 l 2
 485 620 479 620 471 621 c 2
 320 621 l 1
 273 394 l 1
 598 394 l 1
 584 326 l 1
 258 326 l 1
 205 77 l 1
 407 77 l 2
 411 77 417 77 425 78 c 2
 571 78 l 1
 555 0 l 1
 93 0 l 1
 240 693 l 1
 688 693 l 1
 672 620 l 1
EndSplineSet
Position2: "'cpsp' Capital Spacing lookup 0 subtable" dx=7 dy=0 dh=14 dv=0
EndChar

StartChar: Ecircumflex
Encoding: 202 202 138
Width: 597
GlyphClass: 2
Flags: W
HStem: 0 77<205 555> 326 68<273 584> 620 73<320 672>
AnchorPoint: "topright" 691 430 basechar 0
AnchorPoint: "bottom" 403 2 basechar 0
AnchorPoint: "top" 484 909 basechar 0
AnchorPoint: "below" 353 -22 basechar 0
AnchorPoint: "overlap" 399 357 basechar 0
LayerCount: 2
Fore
SplineSet
548 729 m 1
 474 824 l 1
 360 729 l 1
 290 729 l 1
 452 870 l 1
 514 870 l 1
 616 729 l 1
 548 729 l 1
672 620 m 1
 489 620 l 2
 485 620 479 620 471 621 c 2
 320 621 l 1
 273 394 l 1
 598 394 l 1
 584 326 l 1
 258 326 l 1
 205 77 l 1
 407 77 l 2
 411 77 417 77 425 78 c 2
 571 78 l 1
 555 0 l 1
 93 0 l 1
 240 693 l 1
 688 693 l 1
 672 620 l 1
EndSplineSet
Position2: "'cpsp' Capital Spacing lookup 0 subtable" dx=7 dy=0 dh=14 dv=0
EndChar

StartChar: Edieresis
Encoding: 203 203 139
Width: 597
GlyphClass: 2
Flags: W
HStem: 0 77<205 555> 326 68<273 584> 620 72<320 672> 729 87<342 411 514 583>
AnchorPoint: "topright" 691 430 basechar 0
AnchorPoint: "bottom" 402 2 basechar 0
AnchorPoint: "top" 486 909 basechar 0
AnchorPoint: "below" 352 -22 basechar 0
AnchorPoint: "overlap" 411 357 basechar 0
LayerCount: 2
Fore
SplineSet
583 729 m 1
 496 729 l 1
 514 816 l 1
 601 816 l 1
 583 729 l 1
411 729 m 1
 324 729 l 1
 342 816 l 1
 429 816 l 1
 411 729 l 1
672 620 m 1
 471 620 l 2
 463 621 457 621 453 621 c 2
 320 621 l 1
 273 394 l 1
 598 394 l 1
 584 326 l 1
 258 326 l 1
 205 77 l 1
 407 77 l 2
 411 77 417 77 425 78 c 2
 571 78 l 1
 555 0 l 1
 93 0 l 1
 240 692 l 1
 688 692 l 1
 672 620 l 1
EndSplineSet
Position2: "'cpsp' Capital Spacing lookup 0 subtable" dx=7 dy=0 dh=14 dv=0
EndChar

StartChar: Igrave
Encoding: 204 204 140
Width: 278
GlyphClass: 2
Flags: W
HStem: 0 21G<93 191.167> 676 20G<233.833 332>
VStem: 73 275
AnchorPoint: "topright" 371 430 basechar 0
AnchorPoint: "top" 316 909 basechar 0
AnchorPoint: "below" 186 -26 basechar 0
AnchorPoint: "overlap" 211 339 basechar 0
LayerCount: 2
Fore
SplineSet
250 739 m 1
 73 868 l 1
 194 868 l 1
 348 739 l 1
 250 739 l 1
187 0 m 1
 93 0 l 1
 238 696 l 1
 332 696 l 1
 187 0 l 1
EndSplineSet
Position2: "'cpsp' Capital Spacing lookup 0 subtable" dx=7 dy=0 dh=14 dv=0
EndChar

StartChar: Iacute
Encoding: 205 205 141
Width: 278
GlyphClass: 2
Flags: W
HStem: 0 21G<93 193.224> 676 20G<235.776 336>
AnchorPoint: "topright" 371 430 basechar 0
AnchorPoint: "top" 326 909 basechar 0
AnchorPoint: "below" 186 -26 basechar 0
AnchorPoint: "overlap" 211 339 basechar 0
LayerCount: 2
Fore
SplineSet
342 739 m 1
 239 739 l 1
 450 868 l 1
 575 868 l 1
 342 739 l 1
189 0 m 1
 93 0 l 1
 240 696 l 1
 336 696 l 1
 189 0 l 1
EndSplineSet
Position2: "'cpsp' Capital Spacing lookup 0 subtable" dx=7 dy=0 dh=14 dv=0
EndChar

StartChar: Icircumflex
Encoding: 206 206 142
Width: 278
GlyphClass: 2
Flags: W
HStem: 0 21G<93 192.224> 676 20G<235.776 335>
AnchorPoint: "topright" 371 430 basechar 0
AnchorPoint: "top" 326 909 basechar 0
AnchorPoint: "below" 186 -26 basechar 0
AnchorPoint: "overlap" 211 339 basechar 0
LayerCount: 2
Fore
SplineSet
387 729 m 1
 314 824 l 1
 201 729 l 1
 131 729 l 1
 292 870 l 1
 354 870 l 1
 455 729 l 1
 387 729 l 1
188 0 m 1
 93 0 l 1
 240 696 l 1
 335 696 l 1
 188 0 l 1
EndSplineSet
Position2: "'cpsp' Capital Spacing lookup 0 subtable" dx=7 dy=0 dh=14 dv=0
EndChar

StartChar: Idieresis
Encoding: 207 207 143
Width: 278
GlyphClass: 2
Flags: W
HStem: 0 21G<93 192.201> 675 20G<234.799 334> 729 87<184 252 354 422>
AnchorPoint: "topright" 371 430 basechar 0
AnchorPoint: "top" 316 909 basechar 0
AnchorPoint: "below" 186 -26 basechar 0
AnchorPoint: "overlap" 211 339 basechar 0
LayerCount: 2
Fore
SplineSet
422 729 m 1
 335 729 l 1
 354 816 l 1
 440 816 l 1
 422 729 l 1
252 729 m 1
 165 729 l 1
 184 816 l 1
 270 816 l 1
 252 729 l 1
188 0 m 1
 93 0 l 1
 239 695 l 1
 334 695 l 1
 188 0 l 1
EndSplineSet
Position2: "'cpsp' Capital Spacing lookup 0 subtable" dx=7 dy=0 dh=14 dv=0
EndChar

StartChar: Eth
Encoding: 208 208 144
Width: 722
GlyphClass: 2
Flags: W
HStem: 0 63<202 449.219> 311 72<100 161 270 354> 631 63<322 561.854>
VStem: 654 93<300.529 531.394>
CounterMasks: 1 e0
AnchorPoint: "topright" 771 430 basechar 0
AnchorPoint: "top" 486 719 basechar 0
AnchorPoint: "below" 330 -20 basechar 0
AnchorPoint: "overlap" 431 349 basechar 0
LayerCount: 2
Fore
SplineSet
360 0 m 2
 95 0 l 1
 161 311 l 1
 84 311 l 1
 100 383 l 1
 177 383 l 1
 243 694 l 1
 505 694 l 2
 591 694 656 659 701 590 c 0
 732 543 747 490 747 430 c 0
 747 401 744 371 737 340 c 0
 718 249 673 171 604 105 c 0
 531 35 449 0 360 0 c 2
622 551 m 0
 589 604 539 631 470 631 c 2
 322 631 l 1
 270 383 l 1
 370 383 l 1
 354 311 l 1
 254 311 l 1
 202 63 l 1
 348 63 l 2
 505 63 615 202 644 342 c 0
 651 372 654 400 654 427 c 0
 654 475 643 516 622 551 c 0
EndSplineSet
Position2: "'cpsp' Capital Spacing lookup 0 subtable" dx=7 dy=0 dh=14 dv=0
EndChar

StartChar: Ntilde
Encoding: 209 209 145
Width: 708
GlyphClass: 2
Flags: W
HStem: 0 21G<95 184.217 477.234 616.259> 675 20G<238.741 377.743 670.743 760> 729 69<542.175 622.356> 787 68<422.658 502.766>
VStem: 340 68<729 774.085> 636 69<808.91 855>
AnchorPoint: "topright" 761 430 basechar 0
AnchorPoint: "top" 536 909 basechar 0
AnchorPoint: "below" 394 -29 basechar 0
AnchorPoint: "overlap" 431 339 basechar 0
LayerCount: 2
Fore
SplineSet
577 729 m 0xec
 560 729 538 739 513 758 c 0
 488 777 469 787 457 787 c 0xdc
 434 787 418 768 408 729 c 1
 340 729 l 1xec
 349 770 366 801 391 823 c 0
 416 845 441 855 468 855 c 0xdc
 485 855 506 846 532 827 c 0
 558 808 576 798 588 798 c 0xec
 611 798 627 817 636 855 c 1
 705 855 l 1xdc
 695 814 678 784 653 762 c 0
 628 740 603 729 577 729 c 0xec
546 89 m 1
 675 695 l 1
 760 695 l 1
 612 0 l 1
 483 0 l 1
 308 607 l 1
 180 0 l 1
 95 0 l 1
 243 695 l 1
 372 695 l 1
 546 89 l 1
EndSplineSet
Position2: "'cpsp' Capital Spacing lookup 0 subtable" dx=7 dy=0 dh=14 dv=0
EndChar

StartChar: Ograve
Encoding: 210 210 146
Width: 736
GlyphClass: 2
Flags: W
HStem: -22 72<300.095 466.878> 646 71<413.629 585.547>
VStem: 118 99<147.442 386.668> 670 92<317.125 552.239>
AnchorPoint: "topright" 801 430 basechar 0
AnchorPoint: "bottom" 401 -14 basechar 0
AnchorPoint: "top" 556 909 basechar 0
AnchorPoint: "below" 402 -63 basechar 0
AnchorPoint: "overlap" 451 339 basechar 0
LayerCount: 2
Fore
SplineSet
530 739 m 1
 350 868 l 1
 473 868 l 1
 630 739 l 1
 530 739 l 1
363 -22 m 0
 279 -22 214 13 167 84 c 0
 134 133 118 189 118 252 c 0
 118 282 122 314 129 347 c 0
 150 442 195 526 265 599 c 0
 342 678 426 717 519 717 c 0
 604 717 669 681 715 608 c 0
 746 559 762 503 762 440 c 0
 762 410 759 378 752 345 c 0
 732 250 687 166 617 95 c 0
 540 17 456 -22 363 -22 c 0
640 568 m 0
 609 620 564 646 505 646 c 0
 436 646 375 614 322 551 c 0
 275 496 244 433 229 360 c 0
 221 323 217 290 217 259 c 0
 217 212 226 171 244 136 c 0
 274 79 319 50 378 50 c 0
 448 50 511 86 566 157 c 0
 613 217 644 285 660 361 c 0
 667 392 670 421 670 448 c 0
 670 495 660 535 640 568 c 0
EndSplineSet
Position2: "'cpsp' Capital Spacing lookup 0 subtable" dx=7 dy=0 dh=14 dv=0
EndChar

StartChar: Oacute
Encoding: 211 211 147
Width: 736
GlyphClass: 2
Flags: W
HStem: -22 72<300.095 466.878> 646 71<413.629 585.547>
VStem: 118 99<147.442 386.668> 670 92<317.125 552.239>
AnchorPoint: "topright" 801 430 basechar 0
AnchorPoint: "bottom" 401 -14 basechar 0
AnchorPoint: "top" 546 909 basechar 0
AnchorPoint: "below" 402 -63 basechar 0
AnchorPoint: "overlap" 441 339 basechar 0
LayerCount: 2
Fore
SplineSet
520 739 m 1
 417 739 l 1
 629 868 l 1
 755 868 l 1
 520 739 l 1
363 -22 m 0
 279 -22 214 13 167 84 c 0
 134 133 118 189 118 252 c 0
 118 282 122 314 129 347 c 0
 150 442 195 526 265 599 c 0
 342 678 426 717 519 717 c 0
 604 717 669 681 715 608 c 0
 746 559 762 503 762 440 c 0
 762 410 759 378 752 345 c 0
 732 250 687 166 617 95 c 0
 540 17 456 -22 363 -22 c 0
640 568 m 0
 609 620 564 646 505 646 c 0
 436 646 375 614 322 551 c 0
 275 496 244 433 229 360 c 0
 221 323 217 290 217 259 c 0
 217 212 226 171 244 136 c 0
 274 79 319 50 378 50 c 0
 448 50 511 86 566 157 c 0
 613 217 644 285 660 361 c 0
 667 392 670 421 670 448 c 0
 670 495 660 535 640 568 c 0
EndSplineSet
Position2: "'cpsp' Capital Spacing lookup 0 subtable" dx=7 dy=0 dh=14 dv=0
EndChar

StartChar: Ocircumflex
Encoding: 212 212 148
Width: 736
GlyphClass: 2
Flags: W
HStem: -22 72<300.095 466.878> 646 71<413.629 585.547>
VStem: 118 99<147.442 386.668> 670 92<317.125 552.592>
AnchorPoint: "topright" 801 430 basechar 0
AnchorPoint: "bottom" 391 -14 basechar 0
AnchorPoint: "top" 556 909 basechar 0
AnchorPoint: "below" 392 -63 basechar 0
AnchorPoint: "overlap" 441 339 basechar 0
LayerCount: 2
Fore
SplineSet
617 729 m 1
 543 824 l 1
 429 729 l 1
 358 729 l 1
 521 870 l 1
 583 870 l 1
 685 729 l 1
 617 729 l 1
363 -22 m 0
 279 -22 214 13 167 84 c 0
 134 133 118 189 118 252 c 0
 118 282 122 314 129 347 c 0
 150 442 195 526 265 599 c 0
 342 678 426 717 519 717 c 0
 604 717 669 681 715 609 c 0
 746 560 762 503 762 440 c 0
 762 410 759 378 752 345 c 0
 732 250 687 166 617 95 c 0
 540 17 456 -22 363 -22 c 0
640 568 m 0
 609 620 564 646 505 646 c 0
 436 646 375 614 322 551 c 0
 275 496 244 433 229 360 c 0
 221 323 217 290 217 259 c 0
 217 212 226 171 244 136 c 0
 274 79 319 50 378 50 c 0
 448 50 511 86 566 157 c 0
 613 217 644 285 660 361 c 0
 667 392 670 421 670 448 c 0
 670 495 660 535 640 568 c 0
EndSplineSet
Position2: "'cpsp' Capital Spacing lookup 0 subtable" dx=7 dy=0 dh=14 dv=0
EndChar

StartChar: Otilde
Encoding: 213 213 149
Width: 736
GlyphClass: 2
Flags: W
HStem: -22 72<300.095 466.878> 646 71<413.629 585.547> 729 69<556.175 635.409> 787 68<436.62 517.117>
VStem: 118 99<147.442 386.349> 354 68<729 774.085> 650 69<810.276 855> 670 92<317.125 552.041>
AnchorPoint: "topright" 801 430 basechar 0
AnchorPoint: "bottom" 391 -14 basechar 0
AnchorPoint: "top" 566 909 basechar 0
AnchorPoint: "below" 392 -63 basechar 0
AnchorPoint: "overlap" 451 339 basechar 0
LayerCount: 2
Fore
SplineSet
591 729 m 0xee
 574 729 552 739 527 758 c 0
 502 777 483 787 471 787 c 0xde
 448 787 432 768 422 729 c 1
 354 729 l 1xee
 363 770 380 801 405 823 c 0
 430 845 455 855 481 855 c 0xde
 498 855 520 846 546 827 c 0
 572 808 590 798 602 798 c 0xee
 624 798 640 817 650 855 c 1
 719 855 l 1xde
 709 814 692 784 667 762 c 0
 642 740 617 729 591 729 c 0xee
363 -22 m 0
 279 -22 214 13 167 84 c 0
 134 133 118 189 118 252 c 0
 118 282 122 313 129 346 c 0
 150 442 195 526 265 598 c 0
 342 677 426 717 519 717 c 0
 604 717 669 681 715 608 c 0
 746 559 762 503 762 440 c 0xcd
 762 410 759 378 752 345 c 0
 732 250 687 166 617 94 c 0
 540 17 456 -22 363 -22 c 0
640 568 m 0
 609 620 564 646 505 646 c 0
 436 646 375 614 322 551 c 0
 275 496 244 433 229 360 c 0
 221 323 217 290 217 259 c 0
 217 212 226 171 244 136 c 0
 274 79 319 50 378 50 c 0
 448 50 511 86 566 157 c 0
 613 217 644 285 660 361 c 0
 667 392 670 421 670 448 c 0
 670 494 660 534 640 568 c 0
EndSplineSet
Position2: "'cpsp' Capital Spacing lookup 0 subtable" dx=7 dy=0 dh=14 dv=0
EndChar

StartChar: Odieresis
Encoding: 214 214 150
Width: 736
GlyphClass: 2
Flags: W
HStem: -22 72<300.095 466.878> 646 71<413.629 585.547> 729 87<411 480 583 652>
VStem: 118 99<147.442 386.349> 670 92<314.708 550.472>
AnchorPoint: "topright" 801 430 basechar 0
AnchorPoint: "bottom" 391 -14 basechar 0
AnchorPoint: "top" 546 909 basechar 0
AnchorPoint: "below" 392 -63 basechar 0
AnchorPoint: "overlap" 441 339 basechar 0
LayerCount: 2
Fore
SplineSet
652 729 m 1
 565 729 l 1
 583 816 l 1
 670 816 l 1
 652 729 l 1
480 729 m 1
 393 729 l 1
 411 816 l 1
 498 816 l 1
 480 729 l 1
363 -22 m 0
 279 -22 214 13 167 84 c 0
 134 133 118 189 118 252 c 0
 118 282 122 313 129 346 c 0
 150 442 195 526 265 598 c 0
 342 677 426 717 519 717 c 0
 604 717 669 681 715 608 c 0
 746 559 762 503 762 440 c 0
 762 410 759 378 752 345 c 0
 732 250 687 166 617 94 c 0
 540 17 456 -22 363 -22 c 0
640 567 m 0
 609 620 564 646 505 646 c 0
 436 646 375 614 322 551 c 0
 275 496 244 433 229 360 c 0
 221 323 217 290 217 259 c 0
 217 212 226 171 244 136 c 0
 274 79 319 50 378 50 c 0
 448 50 511 86 566 157 c 0
 613 216 644 284 660 361 c 0
 667 392 670 421 670 448 c 0
 670 494 660 534 640 567 c 0
EndSplineSet
Position2: "'cpsp' Capital Spacing lookup 0 subtable" dx=7 dy=0 dh=14 dv=0
EndChar

StartChar: multiply
Encoding: 215 215 151
Width: 778
GlyphClass: 2
Flags: W
LayerCount: 2
Fore
SplineSet
247 467 m 0
 247 480 260 492 272 492 c 0
 281 492 289 487 297 476 c 2
 449 284 l 1
 681 475 l 2
 693 485 703 490 712 490 c 0
 724 490 737 476 728 462 c 0
 725 457 718 450 708 442 c 2
 475 249 l 1
 627 58 l 2
 634 49 637 41 637 34 c 0
 637 22 624 10 612 10 c 0
 603 10 595 15 587 25 c 2
 435 217 l 1
 202 25 l 2
 190 15 180 10 171 10 c 0
 159 10 146 24 155 38 c 0
 158 43 165 50 175 58 c 2
 409 251 l 1
 257 442 l 2
 250 451 247 460 247 467 c 0
EndSplineSet
EndChar

StartChar: Oslash
Encoding: 216 216 152
Width: 778
GlyphClass: 2
Flags: W
HStem: -22 68<310.411 498.438> 648 68<425.529 614.165>
VStem: 119 92<151.018 387.022> 713 91<304.649 540.704>
AnchorPoint: "bottom" 387 -14 basechar 0
AnchorPoint: "top" 551 769 basechar 0
AnchorPoint: "below" 388 -63 basechar 0
LayerCount: 2
Fore
SplineSet
730 634 m 1
 779 583 804 516 804 433 c 0
 804 405 801 375 794 344 c 0
 773 246 725 162 649 91 c 0
 569 16 481 -22 384 -22 c 0
 333 -22 286 -9 243 17 c 1
 177 -66 l 1
 123 -30 l 1
 193 60 l 1
 144 115 119 181 119 258 c 0
 119 286 122 315 129 346 c 0
 149 443 197 528 274 601 c 0
 355 678 443 716 540 716 c 0
 589 716 636 703 681 677 c 1
 747 760 l 1
 802 724 l 1
 730 634 l 1
677 567 m 1
 292 78 l 1
 324 57 359 46 398 46 c 0
 474 46 541 78 600 142 c 0
 651 198 685 266 702 346 c 0
 709 378 713 408 713 436 c 0
 713 487 701 531 677 567 c 1
526 648 m 0
 450 648 383 615 324 550 c 0
 272 493 238 424 221 344 c 0
 214 313 211 285 211 258 c 0
 211 207 223 163 246 126 c 1
 633 615 l 1
 600 637 564 648 526 648 c 0
EndSplineSet
Position2: "'cpsp' Capital Spacing lookup 0 subtable" dx=7 dy=0 dh=14 dv=0
EndChar

StartChar: Ugrave
Encoding: 217 217 153
Width: 688
GlyphClass: 2
Flags: W
HStem: -22 63<284.464 437.891> 676 20G<236.783 337 652.748 742>
VStem: 137 95<94.0779 299.398>
AnchorPoint: "topright" 761 430 basechar 0
AnchorPoint: "bottom" 341 -14 basechar 0
AnchorPoint: "top" 546 909 basechar 0
AnchorPoint: "below" 341 -44 basechar 0
AnchorPoint: "overlap" 441 339 basechar 0
LayerCount: 2
Fore
SplineSet
506 739 m 1
 326 868 l 1
 449 868 l 1
 606 739 l 1
 506 739 l 1
232 173 m 0
 232 94 283 41 355 41 c 0
 463 41 539 139 559 235 c 2
 657 696 l 1
 742 696 l 1
 644 234 l 2
 629 163 594 103 536 53 c 0
 478 3 413 -22 342 -22 c 0
 273 -22 219 3 179 52 c 0
 151 87 137 129 137 176 c 0
 137 195 139 215 144 236 c 2
 241 696 l 1
 337 696 l 1
 239 233 l 2
 234 212 232 192 232 173 c 0
EndSplineSet
Position2: "'cpsp' Capital Spacing lookup 0 subtable" dx=7 dy=0 dh=14 dv=0
EndChar

StartChar: Uacute
Encoding: 218 218 154
Width: 688
GlyphClass: 2
Flags: W
HStem: -22 63<284.464 437.891> 676 20G<236.783 337 652.748 742>
VStem: 137 95<94.0779 299.398>
AnchorPoint: "topright" 761 430 basechar 0
AnchorPoint: "bottom" 341 -14 basechar 0
AnchorPoint: "top" 546 909 basechar 0
AnchorPoint: "below" 341 -44 basechar 0
AnchorPoint: "overlap" 441 339 basechar 0
LayerCount: 2
Fore
SplineSet
496 739 m 1
 393 739 l 1
 605 868 l 1
 731 868 l 1
 496 739 l 1
232 173 m 0
 232 94 283 41 355 41 c 0
 463 41 539 139 559 235 c 2
 657 696 l 1
 742 696 l 1
 644 234 l 2
 629 163 594 103 536 53 c 0
 478 3 413 -22 342 -22 c 0
 273 -22 219 3 179 52 c 0
 151 87 137 129 137 176 c 0
 137 195 139 215 144 236 c 2
 241 696 l 1
 337 696 l 1
 239 233 l 2
 234 212 232 192 232 173 c 0
EndSplineSet
Position2: "'cpsp' Capital Spacing lookup 0 subtable" dx=7 dy=0 dh=14 dv=0
EndChar

StartChar: Ucircumflex
Encoding: 219 219 155
Width: 688
GlyphClass: 2
Flags: W
HStem: -22 63<284.464 437.891> 676 20G<236.783 337 652.748 742>
VStem: 137 95<94.0779 299.398>
AnchorPoint: "topright" 761 430 basechar 0
AnchorPoint: "bottom" 343 -14 basechar 0
AnchorPoint: "top" 546 909 basechar 0
AnchorPoint: "below" 343 -44 basechar 0
AnchorPoint: "overlap" 441 339 basechar 0
LayerCount: 2
Fore
SplineSet
593 729 m 1
 519 824 l 1
 405 729 l 1
 335 729 l 1
 497 870 l 1
 559 870 l 1
 661 729 l 1
 593 729 l 1
232 173 m 0
 232 94 283 41 355 41 c 0
 463 41 539 139 559 235 c 2
 657 696 l 1
 742 696 l 1
 644 234 l 2
 629 163 594 103 536 53 c 0
 478 3 413 -22 342 -22 c 0
 273 -22 219 3 179 52 c 0
 151 87 137 129 137 176 c 0
 137 195 139 215 144 236 c 2
 241 696 l 1
 337 696 l 1
 239 233 l 2
 234 212 232 192 232 173 c 0
EndSplineSet
Position2: "'cpsp' Capital Spacing lookup 0 subtable" dx=7 dy=0 dh=14 dv=0
EndChar

StartChar: Udieresis
Encoding: 220 220 156
Width: 688
GlyphClass: 2
Flags: W
HStem: -22 63<284.464 437.806> 675 20G<236.783 337 652.748 742> 729 87<387 456 559 628>
VStem: 137 95<94.0779 298.828>
AnchorPoint: "topright" 761 430 basechar 0
AnchorPoint: "bottom" 342 -14 basechar 0
AnchorPoint: "top" 536 909 basechar 0
AnchorPoint: "below" 342 -44 basechar 0
AnchorPoint: "overlap" 431 339 basechar 0
LayerCount: 2
Fore
SplineSet
628 729 m 1
 541 729 l 1
 559 816 l 1
 646 816 l 1
 628 729 l 1
456 729 m 1
 369 729 l 1
 387 816 l 1
 474 816 l 1
 456 729 l 1
232 173 m 0
 232 94 283 41 355 41 c 0
 463 41 538 138 559 234 c 2
 657 695 l 1
 742 695 l 1
 644 234 l 2
 629 163 594 103 536 53 c 0
 478 3 413 -22 342 -22 c 0
 273 -22 219 3 179 52 c 0
 151 87 137 129 137 176 c 0
 137 195 139 214 144 235 c 2
 241 695 l 1
 337 695 l 1
 239 233 l 2
 234 212 232 192 232 173 c 0
EndSplineSet
Position2: "'cpsp' Capital Spacing lookup 0 subtable" dx=7 dy=0 dh=14 dv=0
EndChar

StartChar: Yacute
Encoding: 221 221 157
Width: 667
GlyphClass: 2
Flags: W
HStem: 0 21G<287 384.26> 676 20G<149 270.343 667.5 816>
AnchorPoint: "topright" 771 430 basechar 0
AnchorPoint: "top" 517 909 basechar 0
AnchorPoint: "below" 337 -19 basechar 0
AnchorPoint: "overlap" 412 339 basechar 0
LayerCount: 2
Fore
SplineSet
486 739 m 1
 383 739 l 1
 595 868 l 1
 721 868 l 1
 486 739 l 1
396 407 m 2
 398 404 405 387 418 355 c 1
 515 471 617 583 718 696 c 1
 816 696 l 1
 439 277 l 1
 380 0 l 1
 287 0 l 1
 346 279 l 1
 149 696 l 1
 261 696 l 1
 396 407 l 2
EndSplineSet
Position2: "'cpsp' Capital Spacing lookup 0 subtable" dx=7 dy=0 dh=14 dv=0
EndChar

StartChar: Thorn
Encoding: 222 222 158
Width: 583
GlyphClass: 2
Flags: W
HStem: 0 21G<96 190.157> 178 63<237 428.143> 505 63<307 469.493> 674 20G<238.764 333>
VStem: 521 89<329.67 459.228>
LayerCount: 2
Fore
SplineSet
342 178 m 2
 223 178 l 1
 186 0 l 1
 96 0 l 1
 243 694 l 1
 333 694 l 1
 307 568 l 1
 431 568 l 2
 498 568 546 548 577 508 c 0
 599 479 610 447 610 412 c 0
 610 399 609 386 606 373 c 0
 593 313 560 265 509 229 c 0
 460 195 405 178 342 178 c 2
521 398 m 0
 521 470 454 505 378 505 c 2
 293 505 l 1
 237 241 l 1
 326 241 l 2
 387 241 435 258 469 292 c 0
 503 326 521 361 521 398 c 0
EndSplineSet
Position2: "'cpsp' Capital Spacing lookup 0 subtable" dx=7 dy=0 dh=14 dv=0
EndChar

StartChar: germandbls
Encoding: 223 223 159
Width: 481
GlyphClass: 2
Flags: W
HStem: -11 68<211.335 348.678> 0 21G<81 167.234> 379 68<304 359.594> 637 68<318.589 446.219>
LayerCount: 2
Fore
SplineSet
401 705 m 0x70
 478 705 546 659 546 584 c 0
 546 575 545 565 543 555 c 0
 530 495 490 447 421 410 c 1
 478 366 513 285 491 180 c 0
 471 85 384 -11 275 -11 c 0
 258 -11 187 -4 187 14 c 1
 199 34 210 53 222 73 c 1
 243 62 265 57 286 57 c 0xb0
 370 57 413 148 413 236 c 0
 413 321 372 376 290 379 c 1
 304 447 l 1
 383 448 445 492 460 557 c 0
 471 608 436 637 388 637 c 0
 371 637 352 633 333 624 c 0
 305 611 287 586 279 548 c 2
 163 0 l 1
 81 0 l 1
 197 551 l 2
 207 596 232 633 271 662 c 0
 310 691 354 705 401 705 c 0x70
EndSplineSet
EndChar

StartChar: agrave
Encoding: 224 224 160
Width: 481
GlyphClass: 2
Flags: W
HStem: -11 68<145.597 293.71> 0 21G<328 414.152> 191 59<221.841 365> 397 67<226.249 373.858> 674 20G<240 337.561>
VStem: 390 85<252.347 382.256>
AnchorPoint: "topright" 471 430 basechar 0
AnchorPoint: "bottom" 402 1 basechar 0
AnchorPoint: "top" 376 705 basechar 0
AnchorPoint: "below" 234 -20 basechar 0
AnchorPoint: "overlap" 306 213 basechar 0
AnchorPoint: "hook" 415 1 basechar 0
LayerCount: 2
Fore
SplineSet
357 521 m 1x3c
 240 694 l 1
 326 694 l 1
 426 521 l 1
 357 521 l 1x3c
341 464 m 0
 419 464 475 410 475 332 c 0
 475 319 473 304 470 289 c 2
 410 0 l 1
 328 0 l 1x7c
 335 31 l 1
 289 3 233 -11 168 -11 c 0xbc
 125 -11 98 5 86 37 c 0
 75 67 73 93 78 116 c 0
 89 165 131 201 203 224 c 0
 253 240 311 249 378 250 c 1
 386 289 390 315 390 326 c 0
 390 369 366 397 328 397 c 0
 277 397 222 379 165 344 c 1
 174 420 l 1
 231 449 286 464 341 464 c 0
156 117 m 0
 148 76 189 57 231 57 c 0xbc
 302 57 343 83 354 135 c 2
 365 191 l 1
 235 184 165 160 156 117 c 0
EndSplineSet
EndChar

StartChar: aacute
Encoding: 225 225 161
Width: 481
GlyphClass: 2
Flags: W
HStem: -11 68<145.597 294.014> 0 21G<329 414.221> 191 59<221.991 366> 397 67<226.757 374.058> 674 20G<426.884 535>
VStem: 391 85<252.347 380.758>
AnchorPoint: "topright" 471 430 basechar 0
AnchorPoint: "bottom" 402 1 basechar 0
AnchorPoint: "top" 376 705 basechar 0
AnchorPoint: "below" 234 -20 basechar 0
AnchorPoint: "overlap" 306 213 basechar 0
AnchorPoint: "hook" 415 1 basechar 0
LayerCount: 2
Fore
SplineSet
344 521 m 1x3c
 273 521 l 1
 447 694 l 1
 535 694 l 1
 344 521 l 1x3c
341 464 m 0
 420 464 476 411 476 332 c 0
 476 319 474 304 471 289 c 2
 410 0 l 1
 329 0 l 1x7c
 335 31 l 1
 290 3 234 -11 168 -11 c 0xbc
 125 -11 98 5 86 37 c 0
 75 67 73 93 78 116 c 0
 90 165 132 201 204 224 c 0
 253 240 311 249 378 250 c 1
 387 289 391 315 391 326 c 0
 391 368 367 397 329 397 c 0
 277 397 222 379 165 344 c 1
 175 420 l 1
 232 449 287 464 341 464 c 0
156 117 m 0
 148 76 189 57 231 57 c 0xbc
 302 57 343 83 354 135 c 2
 366 191 l 1
 235 184 165 160 156 117 c 0
EndSplineSet
EndChar

StartChar: acircumflex
Encoding: 226 226 162
Width: 481
GlyphClass: 2
Flags: W
HStem: -11 68<145.597 294.014> 0 21G<328 414.221> 191 59<221.991 366> 397 67<226.35 374.014> 677 20G<336.461 428.337>
VStem: 390 85<252.347 380.92>
AnchorPoint: "topright" 471 430 basechar 0
AnchorPoint: "bottom" 402 1 basechar 0
AnchorPoint: "top" 386 705 basechar 0
AnchorPoint: "below" 234 -20 basechar 0
AnchorPoint: "overlap" 306 213 basechar 0
AnchorPoint: "hook" 415 1 basechar 0
LayerCount: 2
Fore
SplineSet
443 519 m 1x3c
 376 638 l 1
 258 519 l 1
 190 519 l 1
 355 697 l 1
 418 697 l 1
 510 519 l 1
 443 519 l 1x3c
341 464 m 0
 420 464 475 411 475 332 c 0
 475 319 474 304 471 289 c 2
 410 0 l 1
 328 0 l 1x7c
 335 31 l 1
 290 3 234 -11 168 -11 c 0xbc
 125 -11 98 5 86 37 c 0
 75 67 73 93 78 116 c 0
 90 165 132 201 204 224 c 0
 253 240 311 249 378 250 c 1
 386 289 390 315 390 326 c 0
 390 369 366 397 328 397 c 0
 277 397 222 379 165 344 c 1
 174 420 l 1
 231 449 287 464 341 464 c 0
156 117 m 0
 148 76 189 57 231 57 c 0xbc
 302 57 343 83 354 135 c 2
 366 191 l 1
 235 184 165 160 156 117 c 0
EndSplineSet
EndChar

StartChar: atilde
Encoding: 227 227 163
Width: 481
GlyphClass: 2
Flags: W
HStem: -11 68<146.398 294.199> -0 21G<329 415.152> 191 59<225.199 366> 397 66<227.125 374.375> 544 69<386.131 468.508> 602 68<270.086 348.675>
VStem: 391 85<252.347 382.025> 482 68<624.18 670>
AnchorPoint: "topright" 471 430 basechar 0
AnchorPoint: "bottom" 402 1 basechar 0
AnchorPoint: "top" 396 705 basechar 0
AnchorPoint: "below" 234 -20 basechar 0
AnchorPoint: "overlap" 306 213 basechar 0
AnchorPoint: "hook" 415 1 basechar 0
LayerCount: 2
Fore
SplineSet
424 544 m 0x3b
 407 544 385 554 359 573 c 0
 333 592 314 602 303 602 c 0x37
 281 602 265 583 256 544 c 1
 188 544 l 1x3b
 197 585 214 616 238 638 c 0
 262 660 288 670 314 670 c 0x37
 333 670 353 661 374 644 c 0
 400 623 420 613 435 613 c 0x3b
 457 613 473 632 482 670 c 1
 550 670 l 1x37
 541 630 524 599 500 577 c 0
 476 555 450 544 424 544 c 0x3b
342 463 m 0
 420 463 476 410 476 332 c 0
 476 318 474 304 471 289 c 2
 411 -0 l 1
 329 -0 l 1x73
 336 31 l 1
 290 3 234 -11 168 -11 c 0xb3
 125 -11 98 5 86 37 c 0
 75 67 73 93 78 116 c 0
 101 211 245 247 379 250 c 1
 387 289 391 315 391 326 c 0
 391 368 367 397 329 397 c 0
 277 397 223 379 166 344 c 1
 175 420 l 1
 232 449 287 463 342 463 c 0
157 117 m 0
 148 77 190 57 231 57 c 0xb3
 302 57 343 83 354 135 c 2
 366 191 l 1
 235 184 166 160 157 117 c 0
EndSplineSet
EndChar

StartChar: adieresis
Encoding: 228 228 164
Width: 481
GlyphClass: 2
Flags: W
HStem: -11 68<145.597 294.014> 0 21G<328 414.152> 191 59<224.973 365> 397 66<226.249 373.858> 564 87<262 330 405 474>
VStem: 390 85<252.347 382.187>
AnchorPoint: "topright" 471 430 basechar 0
AnchorPoint: "bottom" 402 1 basechar 0
AnchorPoint: "top" 376 705 basechar 0
AnchorPoint: "below" 234 -20 basechar 0
AnchorPoint: "overlap" 306 213 basechar 0
AnchorPoint: "hook" 415 1 basechar 0
LayerCount: 2
Fore
SplineSet
474 564 m 1x3c
 387 564 l 1
 405 651 l 1
 492 651 l 1
 474 564 l 1x3c
330 564 m 1
 244 564 l 1
 262 651 l 1
 349 651 l 1
 330 564 l 1
341 463 m 0
 419 463 475 410 475 332 c 0
 475 318 473 304 470 289 c 2
 410 0 l 1
 328 0 l 1x7c
 335 31 l 1
 290 3 234 -11 168 -11 c 0xbc
 125 -11 98 5 86 37 c 0
 75 67 73 93 78 116 c 0
 101 210 245 247 378 250 c 1
 386 289 390 315 390 326 c 0
 390 369 366 397 328 397 c 0
 277 397 222 379 165 344 c 1
 174 419 l 1
 231 448 286 463 341 463 c 0
156 117 m 0
 148 76 189 57 231 57 c 0xbc
 302 57 343 83 354 135 c 2
 365 191 l 1
 235 184 165 160 156 117 c 0
EndSplineSet
EndChar

StartChar: aring
Encoding: 229 229 165
Width: 481
GlyphClass: 2
Flags: W
HStem: -11 68<145.597 293.71> 0 21G<328 414.152> 191 59<221.841 365> 397 67<226.249 373.858> 511 54<321.157 406.586> 631 54<326.467 411.527>
VStem: 390 85<252.347 382.256>
AnchorPoint: "topright" 471 430 basechar 0
AnchorPoint: "bottom" 402 1 basechar 0
AnchorPoint: "top" 376 705 basechar 0
AnchorPoint: "below" 234 -20 basechar 0
AnchorPoint: "overlap" 306 213 basechar 0
AnchorPoint: "hook" 415 1 basechar 0
LayerCount: 2
Fore
SplineSet
384 685 m 0x3e
 433 685 481 658 481 612 c 0
 481 582 466 557 435 538 c 0
 408 520 380 511 349 511 c 0
 300 511 252 538 252 584 c 0
 252 642 319 685 384 685 c 0x3e
341 464 m 0
 419 464 475 410 475 332 c 0
 475 319 473 304 470 289 c 2
 410 0 l 1
 328 0 l 1x7e
 335 31 l 1
 289 3 233 -11 168 -11 c 0xbe
 125 -11 98 5 86 37 c 0
 75 67 73 93 78 116 c 0
 89 165 131 201 203 224 c 0
 253 240 311 249 378 250 c 1
 386 289 390 315 390 326 c 0
 390 369 366 397 328 397 c 0
 277 397 222 379 165 344 c 1
 174 420 l 1
 231 449 286 464 341 464 c 0
374 631 m 0
 343 631 326 620 321 597 c 0
 316 573 337 565 358 565 c 0
 389 565 406 576 411 599 c 0
 417 622 397 631 374 631 c 0
156 117 m 0
 148 76 189 57 231 57 c 0xbe
 302 57 343 83 354 135 c 2
 365 191 l 1
 235 184 165 160 156 117 c 0
EndSplineSet
EndChar

StartChar: ae
Encoding: 230 230 166
Width: 722
GlyphClass: 2
Flags: W
HStem: -11 68<138.26 313.043 489.019 641.225> 188 62<218.633 360> 215 62<468 685.601> 393 68<216.09 368.237 546.998 661.778>
VStem: 360 87<102.8 187.581>
AnchorPoint: "top" 470 505 basechar 0
AnchorPoint: "below" 379 -19 basechar 0
LayerCount: 2
Fore
SplineSet
622 461 m 0xd8
 723 461 759 384 749 280 c 0
 748 262 746 250 745 243 c 2
 739 215 l 1
 450 215 l 1xb8
 448 202 447 190 447 178 c 0
 447 110 488 57 553 57 c 0
 603 57 654 77 707 117 c 1
 697 42 l 1
 646 7 594 -11 539 -11 c 0
 476 -11 427 13 394 62 c 1
 364 29 321 8 264 -1 c 0
 223 -8 189 -11 162 -11 c 0
 115 -11 86 7 76 42 c 0
 66 77 65 102 71 117 c 0
 89 196 189 241 372 250 c 1
 379 288 383 312 383 323 c 0
 383 365 359 395 321 395 c 0
 268 395 213 377 156 342 c 1
 165 417 l 1
 222 446 278 461 333 461 c 0
 393 461 435 437 458 388 c 1
 509 437 564 461 622 461 c 0xd8
661 373 m 0
 646 386 629 393 611 393 c 0
 546 393 493 328 468 277 c 1
 685 277 l 1
 688 325 680 357 661 373 c 0
204 162 m 0
 172 150 154 135 150 116 c 0
 142 77 184 57 224 57 c 0
 297 57 340 81 351 130 c 0
 352 136 355 155 360 188 c 1xd8
 301 187 249 179 204 162 c 0
EndSplineSet
EndChar

StartChar: ccedilla
Encoding: 231 231 167
Width: 444
GlyphClass: 2
Flags: W
HStem: -13 71<199.296 364.026> 390 71<260.793 432.796>
VStem: 77 85<97.1644 272.751>
AnchorPoint: "top" 365 511 basechar 0
AnchorPoint: "below" 246 -223 basechar 0
LayerCount: 2
Fore
SplineSet
162 174 m 0
 162 106 198 58 264 58 c 0
 321 58 377 77 434 115 c 1
 425 39 l 1
 368 4 310 -13 251 -13 c 0
 189 -13 142 10 111 57 c 0
 88 90 77 126 77 167 c 0
 77 184 79 203 83 222 c 0
 96 287 128 342 178 388 c 0
 230 437 288 461 353 461 c 0
 404 461 453 446 500 416 c 1
 471 344 l 1
 432 375 388 390 340 390 c 0
 244 390 185 308 167 221 c 0
 164 204 162 189 162 174 c 0
184 -214 m 1
 107 -214 l 1
 219 -40 l 1
 288 -40 l 1
 184 -214 l 1
EndSplineSet
EndChar

StartChar: egrave
Encoding: 232 232 168
Width: 444
GlyphClass: 2
Flags: W
HStem: -11 68<199.105 358.045> 216 63<176 409.126> 395 69<254.888 380.352> 674 20G<222 320.445>
VStem: 77 78<103.955 216> 409 62<279.418 364.432>
AnchorPoint: "topright" 471 430 basechar 0
AnchorPoint: "bottom" 250 -6 basechar 0
AnchorPoint: "top" 358 705 basechar 0
AnchorPoint: "below" 251 -34 basechar 0
AnchorPoint: "overlap" 299 245 basechar 0
AnchorPoint: "hook" 368 42 basechar 0
LayerCount: 2
Fore
SplineSet
340 521 m 1
 222 694 l 1
 309 694 l 1
 408 521 l 1
 340 521 l 1
155 181 m 0
 155 113 195 57 263 57 c 0
 316 57 372 77 429 117 c 1
 420 42 l 1
 363 7 306 -11 249 -11 c 0
 189 -11 143 12 111 59 c 0
 88 91 77 128 77 171 c 0
 77 189 79 208 83 228 c 0
 96 289 125 343 170 389 c 0
 219 439 274 464 333 464 c 0
 425 464 471 412 471 307 c 0
 471 280 467 250 460 216 c 1
 158 216 l 1
 156 204 155 192 155 181 c 0
409 279 m 1
 413 347 384 395 320 395 c 0
 254 395 200 331 176 279 c 1
 409 279 l 1
EndSplineSet
EndChar

StartChar: eacute
Encoding: 233 233 169
Width: 444
GlyphClass: 2
Flags: W
HStem: -11 68<199.401 358.692> 216 63<176 409.127> 395 69<255.24 379.611> 674 20G<408.884 517>
VStem: 77 78<104.225 216> 409 62<279.418 364.432>
AnchorPoint: "topright" 471 430 basechar 0
AnchorPoint: "bottom" 250 -6 basechar 0
AnchorPoint: "top" 368 705 basechar 0
AnchorPoint: "below" 251 -34 basechar 0
AnchorPoint: "overlap" 291 245 basechar 0
AnchorPoint: "hook" 368 42 basechar 0
LayerCount: 2
Fore
SplineSet
326 521 m 1
 255 521 l 1
 429 694 l 1
 517 694 l 1
 326 521 l 1
155 181 m 0
 155 112 195 57 264 57 c 0
 317 57 373 77 430 117 c 1
 420 42 l 1
 363 7 307 -11 250 -11 c 0
 189 -11 143 12 111 59 c 0
 88 91 77 128 77 171 c 0
 77 189 79 208 83 228 c 0
 96 289 125 343 170 389 c 0
 219 439 274 464 333 464 c 0
 425 464 471 412 471 307 c 0
 471 280 468 250 461 216 c 1
 158 216 l 1
 156 204 155 192 155 181 c 0
409 279 m 1
 413 346 384 395 321 395 c 0
 255 395 200 331 176 279 c 1
 409 279 l 1
EndSplineSet
EndChar

StartChar: ecircumflex
Encoding: 234 234 170
Width: 444
GlyphClass: 2
Flags: W
HStem: -11 68<199.279 358.347> 216 63<176 409.126> 395 69<254.888 380.352> 677 20G<318.461 410.337>
VStem: 77 78<103.955 216> 409 62<279.418 364.432>
AnchorPoint: "topright" 491 430 basechar 0
AnchorPoint: "bottom" 250 -6 basechar 0
AnchorPoint: "top" 374 715 basechar 0
AnchorPoint: "below" 251 -34 basechar 0
AnchorPoint: "overlap" 290 242 basechar 0
AnchorPoint: "hook" 368 42 basechar 0
LayerCount: 2
Fore
SplineSet
425 519 m 1
 358 638 l 1
 240 519 l 1
 172 519 l 1
 337 697 l 1
 400 697 l 1
 492 519 l 1
 425 519 l 1
155 181 m 0
 155 113 195 57 263 57 c 0
 317 57 372 77 429 117 c 1
 420 42 l 1
 363 7 307 -11 250 -11 c 0
 189 -11 143 12 111 59 c 0
 88 91 77 128 77 171 c 0
 77 189 79 208 83 228 c 0
 96 289 125 343 170 389 c 0
 219 439 274 464 333 464 c 0
 425 464 471 412 471 307 c 0
 471 280 468 250 461 216 c 1
 158 216 l 1
 156 204 155 192 155 181 c 0
409 279 m 1
 413 347 384 395 320 395 c 0
 254 395 200 331 176 279 c 1
 409 279 l 1
EndSplineSet
EndChar

StartChar: edieresis
Encoding: 235 235 171
Width: 444
GlyphClass: 2
Flags: W
HStem: -11 68<199.279 358.192> 216 62<176 409.158> 395 68<254.888 380.567> 564 87<244 312 387 456>
VStem: 77 78<103.955 216> 409 62<278.052 363.938>
AnchorPoint: "topright" 481 430 basechar 0
AnchorPoint: "bottom" 250 -6 basechar 0
AnchorPoint: "top" 362 665 basechar 0
AnchorPoint: "below" 251 -34 basechar 0
AnchorPoint: "overlap" 299 244 basechar 0
AnchorPoint: "hook" 368 42 basechar 0
LayerCount: 2
Fore
SplineSet
456 564 m 1
 369 564 l 1
 387 651 l 1
 474 651 l 1
 456 564 l 1
312 564 m 1
 226 564 l 1
 244 651 l 1
 331 651 l 1
 312 564 l 1
155 181 m 0
 155 113 195 57 263 57 c 0
 316 57 372 77 429 117 c 1
 420 42 l 1
 363 7 307 -11 250 -11 c 0
 189 -11 143 12 111 59 c 0
 88 91 77 128 77 171 c 0
 77 189 79 208 83 228 c 0
 96 289 125 342 170 388 c 0
 219 438 274 463 333 463 c 0
 425 463 471 411 471 307 c 0
 471 280 468 250 461 216 c 1
 158 216 l 1
 156 204 155 192 155 181 c 0
409 278 m 1
 413 347 385 395 320 395 c 0
 254 395 200 331 176 278 c 1
 409 278 l 1
EndSplineSet
EndChar

StartChar: igrave
Encoding: 236 236 172
Width: 239
GlyphClass: 2
Flags: W
HStem: 0 21G<80 164.116> 427 20G<167.884 252> 674 20G<89 184.329>
VStem: 80 191
AnchorPoint: "topright" 281 430 basechar 0
AnchorPoint: "bottom" 126 4 basechar 0
AnchorPoint: "top" 235 705 basechar 0
AnchorPoint: "below" 126 -22 basechar 0
LayerCount: 2
Fore
SplineSet
204 521 m 1
 89 694 l 1
 173 694 l 1
 271 521 l 1
 204 521 l 1
160 0 m 1
 80 0 l 1
 172 447 l 1
 252 447 l 1
 160 0 l 1
EndSplineSet
EndChar

StartChar: iacute
Encoding: 237 237 173
Width: 239
GlyphClass: 2
Flags: W
HStem: 0 21G<80 165.206> 427 20G<169.794 255> 674 20G<338 446>
AnchorPoint: "topright" 341 430 basechar 0
AnchorPoint: "bottom" 126 4 basechar 0
AnchorPoint: "top" 257 705 basechar 0
AnchorPoint: "below" 126 -22 basechar 0
LayerCount: 2
Fore
SplineSet
256 521 m 1
 185 521 l 1
 358 694 l 1
 446 694 l 1
 256 521 l 1
161 0 m 1
 80 0 l 1
 174 447 l 1
 255 447 l 1
 161 0 l 1
EndSplineSet
EndChar

StartChar: icircumflex
Encoding: 238 238 174
Width: 239
GlyphClass: 2
Flags: W
HStem: 0 21G<80 165.161> 427 20G<168.839 254> 677 20G<216.573 308.225>
VStem: 71 318
AnchorPoint: "topright" 381 430 basechar 0
AnchorPoint: "bottom" 126 4 basechar 0
AnchorPoint: "top" 269 715 basechar 0
AnchorPoint: "below" 126 -22 basechar 0
LayerCount: 2
Fore
SplineSet
322 519 m 1
 255 638 l 1
 139 519 l 1
 71 519 l 1
 235 697 l 1
 298 697 l 1
 389 519 l 1
 322 519 l 1
161 0 m 1
 80 0 l 1
 173 447 l 1
 254 447 l 1
 161 0 l 1
EndSplineSet
EndChar

StartChar: idieresis
Encoding: 239 239 175
Width: 239
GlyphClass: 2
Flags: W
HStem: 0 21G<80 165.161> 427 20G<168.839 254> 564 87<143 211 285 353>
VStem: 80 291
AnchorPoint: "topright" 331 430 basechar 0
AnchorPoint: "bottom" 124 4 basechar 0
AnchorPoint: "top" 256 665 basechar 0
AnchorPoint: "below" 124 -22 basechar 0
LayerCount: 2
Fore
SplineSet
353 564 m 1
 267 564 l 1
 285 651 l 1
 371 651 l 1
 353 564 l 1
211 564 m 1
 125 564 l 1
 143 651 l 1
 229 651 l 1
 211 564 l 1
161 0 m 1
 80 0 l 1
 173 447 l 1
 254 447 l 1
 161 0 l 1
EndSplineSet
EndChar

StartChar: eth
Encoding: 240 240 176
Width: 500
GlyphClass: 2
Flags: W
HStem: -11 71<196.75 336.761> 396 68<256.34 398.146>
VStem: 71 86<101.41 272.943> 438 96<207.734 407.5>
LayerCount: 2
Fore
SplineSet
534 356 m 0
 534 307 519 222 505 184 c 0
 490 140 457 93 423 62 c 0
 370 13 311 -11 248 -11 c 0
 189 -11 142 12 107 57 c 0
 83 89 71 126 71 168 c 0
 71 185 73 203 77 222 c 0
 90 287 122 342 173 389 c 0
 226 439 284 464 347 464 c 0
 379 464 408 457 434 442 c 1
 421 493 396 539 359 578 c 1
 270 517 l 1
 241 570 l 1
 314 619 l 1
 287 637 259 652 229 665 c 1
 274 723 l 1
 312 711 348 692 383 666 c 1
 471 725 l 1
 499 672 l 1
 429 625 l 1
 499 548 534 459 534 356 c 0
438 274 m 0
 438 344 401 396 333 396 c 0
 241 396 181 313 163 231 c 0
 159 211 157 193 157 176 c 0
 157 110 195 60 262 60 c 0
 312 60 354 84 389 131 c 0
 422 174 438 222 438 274 c 0
EndSplineSet
Substitution2: "'ss05' Style Set 5 lookup 23 IPA alts-1" eth.ipa
EndChar

StartChar: ntilde
Encoding: 241 241 177
Width: 517
GlyphClass: 2
Flags: W
HStem: -0 21G<80 169.245 352 440.228> 389 64<299.939 404.445> 544 69<404.131 486.508> 602 68<288.086 366.675>
VStem: 418 87<267.768 374.713> 500 68<624.18 670>
AnchorPoint: "topright" 541 430 basechar 0
AnchorPoint: "top" 420 687 basechar 0
AnchorPoint: "below" 268 -18 basechar 0
AnchorPoint: "overlap" 326 256 basechar 0
AnchorPoint: "hook" 413 13 basechar 0
LayerCount: 2
Fore
SplineSet
442 544 m 0xe4
 425 544 403 554 377 573 c 0
 351 592 332 602 321 602 c 0xd4
 299 602 283 583 274 544 c 1
 206 544 l 1xe4
 215 585 232 616 256 638 c 0
 280 660 306 670 332 670 c 0xd4
 351 670 371 661 392 644 c 0
 418 623 438 613 453 613 c 0xe4
 475 613 491 632 500 670 c 1
 568 670 l 1xd4
 559 630 542 599 518 577 c 0
 494 555 468 544 442 544 c 0xe4
242 392 m 1
 269 419 337 458 394 458 c 0
 468 458 505 423 505 353 c 0
 505 336 503 318 499 298 c 2
 436 -0 l 1
 352 -0 l 1
 414 292 l 2
 417 305 418 316 418 326 c 0xc8
 418 368 393 389 344 389 c 0
 271 389 231 313 217 245 c 2
 165 -0 l 1
 80 -0 l 1
 176 453 l 1
 255 453 l 1
 242 392 l 1
EndSplineSet
EndChar

StartChar: ograve
Encoding: 242 242 178
Width: 500
GlyphClass: 2
Flags: W
HStem: -11 71<197.535 337.601> 395 69<255.681 400.072> 674 20G<250 348.445>
VStem: 71 86<101.41 272.297> 440 82<180.804 355.135>
AnchorPoint: "topright" 501 430 basechar 0
AnchorPoint: "bottom" 250 -7 basechar 0
AnchorPoint: "top" 389 705 basechar 0
AnchorPoint: "below" 249 -32 basechar 0
AnchorPoint: "overlap" 308 239 basechar 0
LayerCount: 2
Fore
SplineSet
368 521 m 1
 250 694 l 1
 337 694 l 1
 436 521 l 1
 368 521 l 1
248 -11 m 0
 188 -11 141 11 107 56 c 0
 83 88 71 125 71 167 c 0
 71 185 73 203 77 222 c 0
 90 287 122 342 172 389 c 0
 225 439 283 464 347 464 c 0
 408 464 454 440 487 392 c 0
 510 359 522 321 522 278 c 0
 522 259 520 240 516 221 c 0
 503 158 471 104 421 59 c 0
 368 12 311 -11 248 -11 c 0
440 284 m 0
 440 353 395 395 333 395 c 0
 240 395 181 313 163 230 c 0
 159 211 157 193 157 176 c 0
 157 110 195 60 261 60 c 0
 313 60 357 85 392 135 c 0
 424 180 440 229 440 284 c 0
EndSplineSet
EndChar

StartChar: oacute
Encoding: 243 243 179
Width: 500
GlyphClass: 2
Flags: W
HStem: -11 71<196.636 336.433> 395 69<256.031 400.496> 674 20G<436.884 545>
VStem: 71 86<101.41 272.297> 440 83<180.804 354.924>
AnchorPoint: "topright" 501 430 basechar 0
AnchorPoint: "bottom" 250 -7 basechar 0
AnchorPoint: "top" 379 705 basechar 0
AnchorPoint: "below" 249 -32 basechar 0
AnchorPoint: "overlap" 303 239 basechar 0
LayerCount: 2
Fore
SplineSet
354 521 m 1
 283 521 l 1
 457 694 l 1
 545 694 l 1
 354 521 l 1
248 -11 m 0
 189 -11 142 11 107 56 c 0
 83 88 71 125 71 168 c 0
 71 185 73 203 77 222 c 0
 90 287 122 342 172 389 c 0
 225 439 284 464 347 464 c 0
 408 464 455 440 488 392 c 0
 511 359 523 321 523 278 c 0
 523 259 521 240 516 221 c 0
 503 158 471 104 421 59 c 0
 369 12 311 -11 248 -11 c 0
440 284 m 0
 440 352 396 395 334 395 c 0
 240 395 181 313 163 230 c 0
 159 211 157 193 157 176 c 0
 157 110 195 60 261 60 c 0
 313 60 357 85 392 135 c 0
 424 180 440 229 440 284 c 0
EndSplineSet
EndChar

StartChar: ocircumflex
Encoding: 244 244 180
Width: 500
GlyphClass: 2
Flags: W
HStem: -11 71<197.535 337.601> 395 69<255.681 399.92> 677 20G<346.348 438.337>
VStem: 71 86<101.41 272.297> 440 82<180.804 355.356>
AnchorPoint: "topright" 521 430 basechar 0
AnchorPoint: "bottom" 250 -7 basechar 0
AnchorPoint: "top" 399 707 basechar 0
AnchorPoint: "below" 249 -32 basechar 0
AnchorPoint: "overlap" 307 234 basechar 0
LayerCount: 2
Fore
SplineSet
453 519 m 1
 386 638 l 1
 268 519 l 1
 199 519 l 1
 365 697 l 1
 428 697 l 1
 520 519 l 1
 453 519 l 1
248 -11 m 0
 188 -11 141 11 107 56 c 0
 83 88 71 125 71 168 c 0
 71 185 73 203 77 222 c 0
 90 287 122 342 172 389 c 0
 225 439 283 464 347 464 c 0
 408 464 454 440 487 392 c 0
 510 359 522 321 522 278 c 0
 522 259 520 240 516 221 c 0
 503 158 471 104 421 59 c 0
 368 12 311 -11 248 -11 c 0
440 284 m 0
 440 350 399 395 333 395 c 0
 240 395 181 313 163 230 c 0
 159 211 157 193 157 176 c 0
 157 110 195 60 261 60 c 0
 313 60 357 85 392 135 c 0
 424 180 440 229 440 284 c 0
EndSplineSet
EndChar

StartChar: otilde
Encoding: 245 245 181
Width: 500
GlyphClass: 2
Flags: W
HStem: -11 71<196.636 336.433> 395 68<256.281 400.496> 544 69<396.131 478.508> 602 68<280.086 358.675>
VStem: 71 86<101.41 272.297> 198 68<544 590.626> 440 83<180.365 354.924> 492 68<624.18 670>
AnchorPoint: "topright" 531 430 basechar 0
AnchorPoint: "bottom" 250 -7 basechar 0
AnchorPoint: "top" 411 683 basechar 0
AnchorPoint: "below" 249 -32 basechar 0
AnchorPoint: "overlap" 311 235 basechar 0
LayerCount: 2
Fore
SplineSet
434 544 m 0xed
 417 544 395 554 369 573 c 0
 343 592 324 602 313 602 c 0xdd
 291 602 275 583 266 544 c 1
 198 544 l 1xed
 207 585 224 616 248 638 c 0
 272 660 298 670 324 670 c 0xdd
 343 670 363 661 384 644 c 0
 410 623 430 613 445 613 c 0xed
 467 613 483 632 492 670 c 1
 560 670 l 1xdd
 551 630 534 599 510 577 c 0
 486 555 460 544 434 544 c 0xed
248 -11 m 0
 189 -11 142 11 107 56 c 0
 83 88 71 125 71 167 c 0
 71 184 73 203 77 222 c 0
 90 287 122 342 173 389 c 0
 226 438 284 463 347 463 c 0
 408 463 455 439 488 392 c 0
 511 359 523 321 523 278 c 0xce
 523 259 521 240 517 220 c 0
 504 157 472 104 421 59 c 0
 369 12 311 -11 248 -11 c 0
440 284 m 0
 440 352 396 395 334 395 c 0
 240 395 181 313 163 230 c 0
 159 211 157 193 157 176 c 0
 157 110 195 60 261 60 c 0
 313 60 357 85 392 135 c 0
 424 180 440 229 440 284 c 0
EndSplineSet
EndChar

StartChar: odieresis
Encoding: 246 246 182
Width: 500
GlyphClass: 2
Flags: W
HStem: -11 71<197.535 337.601> 395 68<255.681 400.072> 564 87<272 340 416 484>
VStem: 71 86<101.41 272.297> 440 82<180.365 355.135>
AnchorPoint: "topright" 511 430 basechar 0
AnchorPoint: "bottom" 250 -7 basechar 0
AnchorPoint: "top" 389 665 basechar 0
AnchorPoint: "below" 249 -32 basechar 0
AnchorPoint: "overlap" 306 236 basechar 0
LayerCount: 2
Fore
SplineSet
484 564 m 1
 397 564 l 1
 416 651 l 1
 502 651 l 1
 484 564 l 1
340 564 m 1
 254 564 l 1
 272 651 l 1
 359 651 l 1
 340 564 l 1
248 -11 m 0
 188 -11 141 11 107 56 c 0
 83 88 71 125 71 167 c 0
 71 184 73 203 77 222 c 0
 90 287 122 342 172 389 c 0
 225 438 283 463 347 463 c 0
 408 463 454 439 487 392 c 0
 510 359 522 321 522 278 c 0
 522 259 520 240 516 220 c 0
 503 157 471 104 421 59 c 0
 368 12 311 -11 248 -11 c 0
440 284 m 0
 440 353 395 395 333 395 c 0
 240 395 181 313 163 230 c 0
 159 210 157 192 157 176 c 0
 157 110 195 60 261 60 c 0
 313 60 357 85 392 135 c 0
 424 180 440 229 440 284 c 0
EndSplineSet
EndChar

StartChar: divide
Encoding: 247 247 183
Width: 778
GlyphClass: 2
Flags: W
HStem: 85 89<381 451> 227 46<109.177 773.962> 325 89<432 502>
LayerCount: 2
Fore
SplineSet
502 325 m 1
 412 325 l 1
 432 414 l 1
 522 414 l 1
 502 325 l 1
732 227 m 2
 143 227 l 2
 120 227 105 231 109 251 c 0
 112 266 126 273 150 273 c 2
 741 273 l 2
 764 273 778 269 774 249 c 0
 771 234 757 227 732 227 c 2
451 85 m 1
 361 85 l 1
 381 174 l 1
 471 174 l 1
 451 85 l 1
EndSplineSet
EndChar

StartChar: oslash
Encoding: 248 248 184
Width: 500
GlyphClass: 2
Flags: W
HStem: -12 68<214.309 338.027> 394 68<258.51 381.381>
VStem: 73 81<108.971 273.005> 439 82<171.306 336.278>
AnchorPoint: "bottom" 267 -7 basechar 0
AnchorPoint: "top" 356 552 basechar 0
AnchorPoint: "below" 266 -32 basechar 0
LayerCount: 2
Fore
SplineSet
477 404 m 1
 506 369 521 327 521 278 c 0
 521 259 519 240 515 219 c 0
 502 157 470 103 420 58 c 0
 367 11 310 -12 248 -12 c 0
 219 -12 193 -6 168 6 c 1
 76 -113 l 1
 24 -79 l 1
 119 43 l 1
 88 81 73 123 73 170 c 0
 73 187 75 204 78 221 c 0
 92 285 124 340 173 387 c 0
 226 437 284 462 347 462 c 0
 376 462 403 456 429 443 c 1
 517 558 l 1
 570 524 l 1
 477 404 l 1
426 338 m 1
 214 64 l 1
 227 59 242 56 261 56 c 0
 354 56 416 138 433 221 c 0
 437 240 439 258 439 274 c 0
 439 299 435 320 426 338 c 1
334 394 m 0
 282 394 238 369 203 319 c 0
 170 274 154 224 154 170 c 0
 154 147 159 126 168 108 c 1
 382 384 l 1
 368 391 352 394 334 394 c 0
EndSplineSet
EndChar

StartChar: ugrave
Encoding: 249 249 185
Width: 517
GlyphClass: 2
Flags: W
HStem: -11 62<150.5 303.868> 0 21G<354 440.206> 427 20G<169.821 259 440.862 530> 674 20G<259 356.561>
AnchorPoint: "topright" 551 430 basechar 0
AnchorPoint: "bottom" 397 6 basechar 0
AnchorPoint: "top" 395 705 basechar 0
AnchorPoint: "below" 281 -26 basechar 0
AnchorPoint: "overlap" 313 255 basechar 0
AnchorPoint: "hook" 407 7 basechar 0
LayerCount: 2
Fore
SplineSet
376 521 m 1x30
 259 694 l 1
 345 694 l 1
 445 521 l 1
 376 521 l 1x30
436 0 m 1x70
 354 0 l 1x70
 363 42 l 1
 312 7 253 -11 187 -11 c 0
 114 -11 87 30 104 112 c 2
 174 447 l 1
 259 447 l 1
 189 115 l 2
 178 62 192 51 247 51 c 0xb0
 319 51 372 95 385 157 c 2
 445 447 l 1
 530 447 l 1
 436 0 l 1x70
EndSplineSet
EndChar

StartChar: uacute
Encoding: 250 250 186
Width: 517
GlyphClass: 2
Flags: W
HStem: -11 62<150.5 303.992> 0 21G<355 440.206> 427 20G<169.821 259 441.793 530> 674 20G<444.884 553>
AnchorPoint: "topright" 561 430 basechar 0
AnchorPoint: "bottom" 397 6 basechar 0
AnchorPoint: "top" 405 705 basechar 0
AnchorPoint: "below" 281 -26 basechar 0
AnchorPoint: "overlap" 317 258 basechar 0
AnchorPoint: "hook" 407 7 basechar 0
LayerCount: 2
Fore
SplineSet
362 521 m 1x30
 291 521 l 1
 465 694 l 1
 553 694 l 1
 362 521 l 1x30
436 0 m 1x70
 355 0 l 1x70
 363 42 l 1
 312 7 254 -11 187 -11 c 0
 114 -11 87 30 104 112 c 2
 174 447 l 1
 259 447 l 1
 189 115 l 2
 178 62 192 51 247 51 c 0xb0
 319 51 372 95 385 157 c 2
 446 447 l 1
 530 447 l 1
 436 0 l 1x70
EndSplineSet
EndChar

StartChar: ucircumflex
Encoding: 251 251 187
Width: 517
GlyphClass: 2
Flags: W
HStem: -11 62<150.5 303.868> 0 21G<354 440.206> 427 20G<169.821 259 440.862 530> 677 20G<354.461 446.337>
AnchorPoint: "topright" 551 430 basechar 0
AnchorPoint: "bottom" 397 6 basechar 0
AnchorPoint: "top" 405 705 basechar 0
AnchorPoint: "below" 281 -26 basechar 0
AnchorPoint: "overlap" 318 257 basechar 0
AnchorPoint: "hook" 407 7 basechar 0
LayerCount: 2
Fore
SplineSet
461 519 m 1x30
 394 638 l 1
 276 519 l 1
 208 519 l 1
 373 697 l 1
 436 697 l 1
 528 519 l 1
 461 519 l 1x30
436 0 m 1x70
 354 0 l 1x70
 363 42 l 1
 312 7 253 -11 187 -11 c 0
 114 -11 87 30 104 112 c 2
 174 447 l 1
 259 447 l 1
 189 115 l 2
 178 62 192 51 247 51 c 0xb0
 319 51 372 95 385 157 c 2
 445 447 l 1
 530 447 l 1
 436 0 l 1x70
EndSplineSet
EndChar

StartChar: udieresis
Encoding: 252 252 188
Width: 517
GlyphClass: 2
Flags: W
HStem: -11 62<150.5 303.868> 0 21G<354 440.215> 426 20G<169.808 259 440.848 530> 564 87<280 349 424 492>
AnchorPoint: "topright" 551 430 basechar 0
AnchorPoint: "bottom" 397 6 basechar 0
AnchorPoint: "top" 397 665 basechar 0
AnchorPoint: "below" 281 -26 basechar 0
AnchorPoint: "overlap" 315 252 basechar 0
AnchorPoint: "hook" 407 7 basechar 0
LayerCount: 2
Fore
SplineSet
492 564 m 1x30
 405 564 l 1
 424 651 l 1
 510 651 l 1
 492 564 l 1x30
349 564 m 1
 262 564 l 1
 280 651 l 1
 367 651 l 1
 349 564 l 1
436 0 m 1x70
 354 0 l 1x70
 363 42 l 1
 312 7 253 -11 187 -11 c 0
 114 -11 87 30 104 112 c 2
 174 446 l 1
 259 446 l 1
 189 115 l 2
 178 62 192 51 247 51 c 0xb0
 319 51 372 95 385 157 c 2
 445 446 l 1
 530 446 l 1
 436 0 l 1x70
EndSplineSet
EndChar

StartChar: yacute
Encoding: 253 253 189
Width: 461
GlyphClass: 2
Flags: W
HStem: -205 64<8.44739 124.288> 426 20G<105 195.567 403.5 543> 674 20G<417.769 527>
AnchorPoint: "topright" 571 430 basechar 0
AnchorPoint: "top" 342 705 basechar 0
AnchorPoint: "below" 378 -173 basechar 0
AnchorPoint: "overlap" 300 323 basechar 0
LayerCount: 2
Fore
SplineSet
335 521 m 1
 263 521 l 1
 438 694 l 1
 527 694 l 1
 335 521 l 1
255 83 m 1
 279 142 347 263 460 446 c 1
 543 446 l 1
 213 -90 l 2
 166 -167 120 -205 74 -205 c 0
 50 -205 26 -202 1 -196 c 1
 10 -123 l 1
 36 -135 62 -141 87 -141 c 0
 112 -141 139 -105 151 -85 c 2
 205 3 l 1
 105 446 l 1
 191 446 l 1
 220 319 l 2
 243 213 255 134 255 83 c 1
EndSplineSet
EndChar

StartChar: thorn
Encoding: 254 254 190
Width: 517
GlyphClass: 2
Flags: W
HStem: -13 69<211.54 342.118> 386 71<308.233 439.5> 674 20G<223.766 310>
VStem: 447 88<176.048 343.791>
AnchorPoint: "top" 420 715 basechar 0
AnchorPoint: "below" 282 -193 basechar 0
LayerCount: 2
Fore
SplineSet
293 -13 m 0
 246 -13 206 4 174 39 c 1
 125 -194 l 1
 40 -194 l 1
 228 694 l 1
 310 694 l 1
 248 403 l 1
 301 439 357 457 416 457 c 0
 463 457 497 433 517 386 c 0
 529 359 535 328 535 295 c 0
 535 272 532 248 527 222 c 0
 504 114 412 -13 293 -13 c 0
447 268 m 0
 447 334 409 386 348 386 c 0
 305 386 268 367 236 330 c 1
 193 132 l 2
 190 120 191 109 196 100 c 0
 211 71 234 56 267 56 c 0
 317 56 360 79 396 126 c 0
 430 169 447 217 447 268 c 0
EndSplineSet
EndChar

StartChar: ydieresis
Encoding: 255 255 191
Width: 461
GlyphClass: 2
Flags: W
HStem: -205 64<8.44739 124.288> 426 20G<105 195.567 403.5 543> 564 87<253 321 397 465>
AnchorPoint: "topright" 571 430 basechar 0
AnchorPoint: "top" 372 665 basechar 0
AnchorPoint: "below" 358 -173 basechar 0
AnchorPoint: "overlap" 290 323 basechar 0
LayerCount: 2
Fore
SplineSet
465 564 m 1
 378 564 l 1
 397 651 l 1
 484 651 l 1
 465 564 l 1
321 564 m 1
 235 564 l 1
 253 651 l 1
 340 651 l 1
 321 564 l 1
255 83 m 1
 279 142 347 263 460 446 c 1
 543 446 l 1
 213 -90 l 2
 166 -167 120 -205 74 -205 c 0
 50 -205 26 -202 1 -196 c 1
 10 -123 l 1
 36 -135 62 -141 87 -141 c 0
 112 -141 139 -105 151 -85 c 2
 205 3 l 1
 105 446 l 1
 191 446 l 1
 220 319 l 2
 243 213 255 134 255 83 c 1
EndSplineSet
EndChar

StartChar: Amacron
Encoding: 256 256 192
Width: 667
GlyphClass: 2
Flags: W
HStem: 0 21G<25 118.782 536.832 639> 202 63<263 497> 675 20G<422.23 529.252> 749 71<324 674>
AnchorPoint: "topright" 661 430 basechar 0
AnchorPoint: "bottom" 584 7 basechar 0
AnchorPoint: "top" 512 875 basechar 0
AnchorPoint: "below" 358 -20 basechar 0
AnchorPoint: "overlap" 403 339 basechar 0
LayerCount: 2
Fore
SplineSet
674 749 m 1
 310 749 l 1
 324 820 l 1
 689 820 l 1
 674 749 l 1
540 0 m 1
 508 202 l 1
 226 202 l 1
 107 0 l 1
 25 0 l 1
 434 695 l 1
 526 695 l 1
 639 0 l 1
 540 0 l 1
452 604 m 1
 437 573 407 518 362 439 c 2
 263 265 l 1
 497 265 l 1
 462 515 l 2
 457 554 453 583 452 604 c 1
EndSplineSet
Position2: "'cpsp' Capital Spacing lookup 0 subtable" dx=7 dy=0 dh=14 dv=0
EndChar

StartChar: amacron
Encoding: 257 257 193
Width: 481
GlyphClass: 2
Flags: W
HStem: -11 68<146.398 294.199> 0 21G<329 415.152> 191 59<225.199 366> 397 66<227.125 374.858> 572 71<196 543>
VStem: 391 85<252.347 382.187>
AnchorPoint: "topright" 531 430 basechar 0
AnchorPoint: "bottom" 368 2 basechar 0
AnchorPoint: "top" 386 705 basechar 0
AnchorPoint: "below" 234 -20 basechar 0
AnchorPoint: "overlap" 292 216 basechar 0
AnchorPoint: "hook" 381 2 basechar 0
LayerCount: 2
Fore
SplineSet
543 572 m 1x3c
 180 572 l 1
 196 643 l 1
 559 643 l 1
 543 572 l 1x3c
342 463 m 0
 420 463 476 410 476 332 c 0
 476 318 474 304 471 289 c 2
 411 0 l 1
 329 0 l 1x7c
 336 31 l 1
 290 3 234 -11 168 -11 c 0xbc
 125 -11 98 5 86 37 c 0
 75 67 73 93 78 116 c 0
 101 211 245 247 379 250 c 1
 387 289 391 315 391 326 c 0
 391 369 367 397 329 397 c 0
 277 397 223 379 166 344 c 1
 175 419 l 1
 232 448 287 463 342 463 c 0
157 117 m 0
 148 77 190 57 231 57 c 0xbc
 302 57 343 83 354 135 c 2
 366 191 l 1
 235 184 166 160 157 117 c 0
EndSplineSet
EndChar

StartChar: Abreve
Encoding: 258 258 194
Width: 667
GlyphClass: 2
Flags: W
HStem: 0 21G<25 118.782 536.832 639> 202 64<263 497> 676 20G<422.247 529.247> 740 74<449.288 572.148>
VStem: 353 70<839.598 924> 631 68<875.398 924>
AnchorPoint: "topright" 641 430 basechar 0
AnchorPoint: "bottom" 584 7 basechar 0
AnchorPoint: "top" 520 923 basechar 0
AnchorPoint: "below" 358 -20 basechar 0
AnchorPoint: "overlap" 395 331 basechar 0
LayerCount: 2
Fore
SplineSet
505 814 m 0
 570 814 618 868 631 924 c 1
 699 924 l 1
 686 869 660 824 619 790 c 0
 578 756 535 740 489 740 c 0
 409 740 353 799 353 879 c 0
 353 893 355 908 358 924 c 1
 426 924 l 1
 424 914 423 905 423 896 c 0
 423 847 460 814 505 814 c 0
540 0 m 1
 508 202 l 1
 226 202 l 1
 107 0 l 1
 25 0 l 1
 434 696 l 1
 526 696 l 1
 639 0 l 1
 540 0 l 1
452 605 m 1
 410 516 333 388 263 266 c 1
 497 266 l 1
 462 516 l 2
 457 555 453 584 452 605 c 1
EndSplineSet
Position2: "'cpsp' Capital Spacing lookup 0 subtable" dx=7 dy=0 dh=14 dv=0
EndChar

StartChar: abreve
Encoding: 259 259 195
Width: 481
GlyphClass: 2
Flags: W
HStem: -11 68<146.398 294.199> 0 21G<329 415.152> 191 59<225.199 366> 397 67<227.125 374.858> 516 74<310.452 432.083> 680 20G<217.5 287 484.5 559>
VStem: 215 69<615.909 700> 391 85<252.347 382.256> 491 68<651.63 700>
AnchorPoint: "topright" 511 430 basechar 0
AnchorPoint: "bottom" 367 2 basechar 0
AnchorPoint: "top" 388 698 basechar 0
AnchorPoint: "below" 234 -20 basechar 0
AnchorPoint: "overlap" 282 212 basechar 0
AnchorPoint: "hook" 380 2 basechar 0
LayerCount: 2
Fore
SplineSet
365 590 m 0x3f80
 431 590 478 645 491 700 c 1
 559 700 l 1
 546 645 520 601 480 567 c 0
 440 533 396 516 350 516 c 0
 270 516 215 576 215 656 c 0
 215 669 216 684 219 700 c 1
 287 700 l 1
 285 689 284 679 284 670 c 0
 284 623 322 590 365 590 c 0x3f80
342 464 m 0
 420 464 476 410 476 332 c 0
 476 319 474 304 471 289 c 2
 411 0 l 1
 329 0 l 1x7f80
 336 31 l 1
 290 3 234 -11 168 -11 c 0xbf80
 125 -11 98 5 86 37 c 0
 75 67 73 93 78 116 c 0
 101 211 245 247 379 250 c 1
 387 289 391 315 391 326 c 0
 391 369 367 397 329 397 c 0
 277 397 223 379 166 344 c 1
 175 420 l 1
 232 449 287 464 342 464 c 0
157 117 m 0
 148 77 190 57 231 57 c 0xbf80
 302 57 343 83 354 135 c 2
 366 191 l 1
 235 184 166 160 157 117 c 0
EndSplineSet
EndChar

StartChar: Aogonek
Encoding: 260 260 196
Width: 667
GlyphClass: 2
Flags: W
HStem: -2 21G<25 118.782> 200 64<263 496> 674 20G<421.276 529.247>
AnchorPoint: "topright" 641 430 basechar 0
AnchorPoint: "top" 488 749 basechar 0
AnchorPoint: "below" 358 -220 basechar 0
AnchorPoint: "overlap" 401 329 basechar 0
LayerCount: 2
Fore
SplineSet
606 -2 m 1
 543 -35 508 -68 502 -102 c 0
 498 -129 517 -133 542 -135 c 0
 560 -136 584 -130 615 -119 c 1
 616 -186 l 1
 576 -203 541 -212 511 -212 c 0
 455 -212 416 -181 427 -123 c 0
 436 -72 474 -29 539 4 c 1
 507 200 l 1
 226 200 l 1
 107 -2 l 1
 25 -2 l 1
 433 694 l 1
 526 694 l 1
 639 -2 l 1
 606 -2 l 1
452 603 m 1
 409 514 333 387 263 264 c 1
 496 264 l 1
 461 514 l 2
 456 553 453 582 452 603 c 1
EndSplineSet
Position2: "'cpsp' Capital Spacing lookup 0 subtable" dx=7 dy=0 dh=14 dv=0
EndChar

StartChar: aogonek
Encoding: 261 261 197
Width: 481
GlyphClass: 2
Flags: W
HStem: -212 93<292.901 393.882> -13 68<145.737 293.71> 189 58<224.694 365> 395 66<226.249 373.858>
VStem: 390 85<249.432 379.756>
AnchorPoint: "topright" 491 430 basechar 0
AnchorPoint: "bottom" 310 -196 basechar 0
AnchorPoint: "top" 350 505 basechar 0
AnchorPoint: "below" 222 -247 basechar 0
AnchorPoint: "overlap" 283 213 basechar 0
LayerCount: 2
Fore
SplineSet
341 461 m 0
 419 461 475 407 475 329 c 0
 475 316 473 301 470 286 c 2
 410 -2 l 1
 397 -2 l 1
 332 -35 297 -68 292 -102 c 0
 283 -154 366 -133 404 -119 c 1
 405 -186 l 1
 365 -203 330 -212 300 -212 c 0
 246 -212 207 -180 217 -123 c 0
 226 -72 264 -29 329 4 c 1
 335 29 l 1
 289 1 233 -13 168 -13 c 0
 125 -13 98 3 86 35 c 0
 75 64 73 91 78 114 c 0
 100 209 245 244 378 247 c 1
 386 287 390 313 390 324 c 0
 390 367 366 395 328 395 c 0
 277 395 222 377 165 342 c 1
 174 417 l 1
 231 446 286 461 341 461 c 0
156 114 m 0
 148 74 190 55 231 55 c 0
 302 55 343 81 354 133 c 2
 365 189 l 1
 235 182 165 157 156 114 c 0
EndSplineSet
EndChar

StartChar: Cacute
Encoding: 262 262 198
Width: 639
GlyphClass: 2
Flags: W
HStem: -11 71<317.389 524.019> 636 71<430.97 628.546>
VStem: 130 97<164.951 391.921>
AnchorPoint: "topright" 741 430 basechar 0
AnchorPoint: "bottom" 408 -9 basechar 0
AnchorPoint: "top" 551 919 basechar 0
AnchorPoint: "below" 408 -39 basechar 0
AnchorPoint: "overlap" 441 337 basechar 0
LayerCount: 2
Fore
SplineSet
503 739 m 1
 400 739 l 1
 611 868 l 1
 737 868 l 1
 503 739 l 1
685 580 m 1
 639 617 585 636 523 636 c 0
 460 636 401 608 345 552 c 0
 289 496 252 428 235 347 c 0
 230 320 227 294 227 269 c 0
 227 222 238 181 259 144 c 0
 291 88 338 60 399 60 c 0
 441 60 475 64 501 72 c 0
 527 80 563 97 607 124 c 1
 598 46 l 1
 555 22 519 7 491 -0 c 0
 463 -7 428 -11 387 -11 c 0
 298 -11 229 24 180 95 c 0
 147 143 130 198 130 261 c 0
 130 289 133 318 140 349 c 0
 161 444 207 527 280 596 c 0
 357 670 443 707 537 707 c 0
 604 707 664 695 719 670 c 1
 685 580 l 1
EndSplineSet
Position2: "'cpsp' Capital Spacing lookup 0 subtable" dx=7 dy=0 dh=14 dv=0
EndChar

StartChar: cacute
Encoding: 263 263 199
Width: 444
GlyphClass: 2
Flags: W
HStem: -11 71<200.373 363.178> 392 72<262.383 433.407> 674 20G<430.884 539>
VStem: 77 85<99.5029 273.873>
AnchorPoint: "topright" 535 429 basechar 0
AnchorPoint: "bottom" 248 -2 basechar 0
AnchorPoint: "top" 382 707 basechar 0
AnchorPoint: "below" 250 -32 basechar 0
AnchorPoint: "overlap" 311 230 basechar 0
AnchorPoint: "hook" 377 30 basechar 0
LayerCount: 2
Fore
SplineSet
348 521 m 1
 277 521 l 1
 451 694 l 1
 539 694 l 1
 348 521 l 1
162 176 m 0
 162 110 198 60 265 60 c 0
 321 60 378 79 435 118 c 1
 426 41 l 1
 368 6 310 -11 251 -11 c 0
 189 -11 142 12 111 59 c 0
 88 92 77 129 77 170 c 0
 77 187 79 205 83 224 c 0
 97 289 129 345 178 391 c 0
 230 440 288 464 353 464 c 0
 405 464 454 449 501 419 c 1
 472 347 l 1
 432 377 388 392 340 392 c 0
 245 392 185 309 167 224 c 0
 164 207 162 191 162 176 c 0
EndSplineSet
EndChar

StartChar: Ccircumflex
Encoding: 264 264 200
Width: 639
GlyphClass: 2
Flags: W
HStem: -11 71<317.389 524.019> 636 71<430.64 628.284>
VStem: 130 97<164.951 391.921>
AnchorPoint: "topright" 741 430 basechar 0
AnchorPoint: "bottom" 408 -9 basechar 0
AnchorPoint: "top" 535 913 basechar 0
AnchorPoint: "below" 408 -39 basechar 0
AnchorPoint: "overlap" 489 343 basechar 0
LayerCount: 2
Fore
SplineSet
600 729 m 1
 526 824 l 1
 412 729 l 1
 341 729 l 1
 503 870 l 1
 566 870 l 1
 668 729 l 1
 600 729 l 1
685 580 m 1
 639 617 585 636 523 636 c 0
 460 636 401 608 345 552 c 0
 289 496 252 428 235 347 c 0
 230 320 227 294 227 269 c 0
 227 222 238 181 259 144 c 0
 291 88 338 60 399 60 c 0
 441 60 475 64 501 72 c 0
 527 80 563 97 607 124 c 1
 598 46 l 1
 555 22 519 7 491 -0 c 0
 463 -7 428 -11 387 -11 c 0
 298 -11 229 24 180 95 c 0
 147 143 130 198 130 261 c 0
 130 289 133 318 140 349 c 0
 161 444 207 527 280 596 c 0
 357 670 442 707 536 707 c 0
 603 707 664 695 719 670 c 1
 685 580 l 1
EndSplineSet
Position2: "'cpsp' Capital Spacing lookup 0 subtable" dx=7 dy=0 dh=14 dv=0
EndChar

StartChar: ccircumflex
Encoding: 265 265 201
Width: 444
GlyphClass: 2
Flags: W
HStem: -11 71<200.373 364.059> 392 72<262.383 433.169> 677 20G<340.461 432.337>
VStem: 77 85<99.5029 273.873>
AnchorPoint: "topright" 535 426 basechar 0
AnchorPoint: "bottom" 253 -3 basechar 0
AnchorPoint: "top" 397 719 basechar 0
AnchorPoint: "below" 250 -32 basechar 0
AnchorPoint: "overlap" 316 226 basechar 0
AnchorPoint: "hook" 380 32 basechar 0
LayerCount: 2
Fore
SplineSet
447 519 m 1
 380 638 l 1
 262 519 l 1
 194 519 l 1
 359 697 l 1
 422 697 l 1
 514 519 l 1
 447 519 l 1
162 176 m 0
 162 109 198 60 265 60 c 0
 321 60 377 79 434 118 c 1
 425 41 l 1
 368 6 310 -11 251 -11 c 0
 189 -11 142 12 111 59 c 0
 88 92 77 129 77 170 c 0
 77 187 79 205 83 224 c 0
 97 289 129 345 178 391 c 0
 230 440 288 464 353 464 c 0
 405 464 454 449 500 419 c 1
 471 347 l 1
 432 377 388 392 340 392 c 0
 245 392 185 309 167 224 c 0
 164 207 162 191 162 176 c 0
EndSplineSet
EndChar

StartChar: Cdotaccent
Encoding: 266 266 202
Width: 639
GlyphClass: 2
Flags: W
HStem: -11 71<317.389 524.432> 636 71<430.857 628.284> 729 96<477 552>
VStem: 130 97<164.951 391.423>
AnchorPoint: "topright" 741 430 basechar 0
AnchorPoint: "bottom" 408 -9 basechar 0
AnchorPoint: "top" 531 875 basechar 0
AnchorPoint: "below" 408 -39 basechar 0
AnchorPoint: "overlap" 451 341 basechar 0
LayerCount: 2
Fore
SplineSet
552 729 m 1
 457 729 l 1
 477 825 l 1
 573 825 l 1
 552 729 l 1
685 580 m 1
 639 617 585 636 523 636 c 0
 460 636 401 608 345 552 c 0
 289 496 252 428 235 347 c 0
 230 320 227 294 227 269 c 0
 227 222 238 181 259 144 c 0
 291 88 338 60 399 60 c 0
 441 60 476 64 502 72 c 0
 528 80 563 97 607 124 c 1
 598 46 l 1
 555 22 519 7 491 -0 c 0
 463 -7 428 -11 387 -11 c 0
 298 -11 229 24 180 95 c 0
 147 143 130 198 130 261 c 0
 130 289 133 318 140 348 c 0
 161 443 207 526 280 596 c 0
 357 670 443 707 536 707 c 0
 603 707 664 695 719 670 c 1
 685 580 l 1
EndSplineSet
Position2: "'cpsp' Capital Spacing lookup 0 subtable" dx=7 dy=0 dh=14 dv=0
EndChar

StartChar: cdotaccent
Encoding: 267 267 203
Width: 444
GlyphClass: 2
Flags: W
HStem: -11 71<200.043 364.026> 392 71<261.285 432.796> 559 96<334 409>
VStem: 77 85<99.5029 273.926>
AnchorPoint: "topright" 523 430 basechar 0
AnchorPoint: "bottom" 247 -3 basechar 0
AnchorPoint: "top" 391 708 basechar 0
AnchorPoint: "below" 250 -32 basechar 0
AnchorPoint: "overlap" 314 228 basechar 0
AnchorPoint: "hook" 377 30 basechar 0
LayerCount: 2
Fore
SplineSet
409 559 m 1
 314 559 l 1
 334 655 l 1
 429 655 l 1
 409 559 l 1
162 176 m 0
 162 110 197 60 264 60 c 0
 321 60 377 79 434 118 c 1
 425 41 l 1
 368 6 310 -11 251 -11 c 0
 189 -11 142 12 111 59 c 0
 88 92 77 129 77 170 c 0
 77 187 79 205 83 224 c 0
 107 343 215 463 353 463 c 0
 404 463 453 448 500 418 c 1
 471 346 l 1
 432 377 388 392 340 392 c 0
 244 392 185 310 167 223 c 0
 164 206 162 191 162 176 c 0
EndSplineSet
EndChar

StartChar: Ccaron
Encoding: 268 268 204
Width: 639
GlyphClass: 2
Flags: W
HStem: -11 71<317.389 524.019> 636 71<430.64 628.284>
VStem: 130 97<164.951 391.921>
AnchorPoint: "topright" 741 430 basechar 0
AnchorPoint: "bottom" 408 -9 basechar 0
AnchorPoint: "top" 539 921 basechar 0
AnchorPoint: "below" 408 -39 basechar 0
AnchorPoint: "overlap" 481 349 basechar 0
LayerCount: 2
Fore
SplineSet
537 729 m 1
 474 729 l 1
 373 870 l 1
 441 870 l 1
 514 776 l 1
 629 870 l 1
 699 870 l 1
 537 729 l 1
685 580 m 1
 639 617 585 636 523 636 c 0
 460 636 401 608 345 552 c 0
 289 496 252 428 235 347 c 0
 230 320 227 294 227 269 c 0
 227 222 238 181 259 144 c 0
 291 88 338 60 399 60 c 0
 441 60 475 64 501 72 c 0
 527 80 563 97 607 124 c 1
 598 46 l 1
 555 22 519 7 491 -0 c 0
 463 -7 428 -11 387 -11 c 0
 298 -11 229 24 180 95 c 0
 147 143 130 198 130 261 c 0
 130 289 133 318 140 349 c 0
 161 444 207 527 280 596 c 0
 357 670 442 707 536 707 c 0
 603 707 664 695 719 670 c 1
 685 580 l 1
EndSplineSet
Position2: "'cpsp' Capital Spacing lookup 0 subtable" dx=7 dy=0 dh=14 dv=0
EndChar

StartChar: ccaron
Encoding: 269 269 205
Width: 444
GlyphClass: 2
Flags: W
HStem: -11 71<200.686 364.732> 392 72<262.545 433.422> 677 20G<232 310.261 463.336 552>
VStem: 77 85<99.5029 273.873>
AnchorPoint: "topright" 539 422 basechar 0
AnchorPoint: "bottom" 254 0 basechar 0
AnchorPoint: "top" 391 706 basechar 0
AnchorPoint: "below" 250 -32 basechar 0
AnchorPoint: "overlap" 318 239 basechar 0
AnchorPoint: "hook" 377 31 basechar 0
LayerCount: 2
Fore
SplineSet
386 519 m 1
 323 519 l 1
 232 697 l 1
 299 697 l 1
 366 578 l 1
 483 697 l 1
 552 697 l 1
 386 519 l 1
162 176 m 0
 162 110 198 60 265 60 c 0
 321 60 378 79 435 118 c 1
 426 41 l 1
 369 6 310 -11 251 -11 c 0
 190 -11 143 12 111 59 c 0
 88 92 77 129 77 170 c 0
 77 187 79 205 83 224 c 0
 97 289 129 345 178 391 c 0
 230 440 288 464 353 464 c 0
 405 464 454 449 501 419 c 1
 472 347 l 1
 432 377 388 392 341 392 c 0
 245 392 185 309 167 224 c 0
 164 207 162 191 162 176 c 0
EndSplineSet
EndChar

StartChar: Dcaron
Encoding: 270 270 206
Width: 722
GlyphClass: 2
Flags: W
HStem: 0 63<202 449.219> 632 64<322 561.854>
VStem: 654 93<298.485 532.394>
AnchorPoint: "topright" 771 430 basechar 0
AnchorPoint: "bottom" 335 1 basechar 0
AnchorPoint: "top" 443 869 basechar 0
AnchorPoint: "below" 332 -19 basechar 0
AnchorPoint: "overlap" 439 355 basechar 0
LayerCount: 2
Fore
SplineSet
446 729 m 1
 383 729 l 1
 282 870 l 1
 350 870 l 1
 424 776 l 1
 538 870 l 1
 608 870 l 1
 446 729 l 1
360 0 m 2
 95 0 l 1
 243 696 l 1
 505 696 l 2
 591 696 656 661 701 591 c 0
 732 544 747 491 747 431 c 0
 747 402 744 372 737 341 c 0
 718 250 673 172 604 106 c 0
 531 35 449 0 360 0 c 2
622 552 m 0
 589 605 539 632 470 632 c 2
 322 632 l 1
 202 63 l 1
 348 63 l 2
 422 63 487 92 543 150 c 0
 594 202 628 266 644 343 c 0
 651 373 654 401 654 428 c 0
 654 476 643 517 622 552 c 0
EndSplineSet
Position2: "'cpsp' Capital Spacing lookup 0 subtable" dx=7 dy=0 dh=14 dv=0
EndChar

StartChar: dcaron
Encoding: 271 271 207
Width: 517
GlyphClass: 2
Flags: W
HStem: -11 68<198.623 303.337> -0 21G<351 441.236> 389 69<263.919 401.041> 674 20G<497.749 584 608.61 694>
VStem: 75 86<95.6071 269.291>
AnchorPoint: "topright" 721 430 basechar 0
AnchorPoint: "bottom" 251 -2 basechar 0
AnchorPoint: "top" 416 745 basechar 0
AnchorPoint: "below" 251 -20 basechar 0
AnchorPoint: "overlap" 293 222 basechar 0
AnchorPoint: "hook" 397 5 basechar 0
LayerCount: 2
Fore
SplineSet
677 615 m 1x38
 615 501 l 1
 571 501 l 1
 616 612 l 1
 595 612 l 1
 613 694 l 1
 694 694 l 1
 677 615 l 1x38
437 0 m 1x78
 351 -0 l 1x78
 361 45 l 1
 312 8 261 -11 208 -11 c 0xb8
 159 -11 123 12 98 58 c 0
 83 87 75 119 75 156 c 0
 75 177 78 200 83 224 c 0
 106 330 195 458 311 458 c 0
 362 458 405 441 441 407 c 1
 502 694 l 1
 584 694 l 1
 437 0 l 1x78
161 166 m 0
 161 100 203 57 262 57 c 0xb8
 286 57 310 65 336 82 c 0
 362 99 377 119 382 142 c 2
 423 339 l 1
 407 372 381 389 344 389 c 0
 248 389 185 307 168 222 c 0
 163 201 161 183 161 166 c 0
EndSplineSet
EndChar

StartChar: Dcroat
Encoding: 272 272 208
Width: 722
GlyphClass: 2
Flags: W
HStem: 0 63<202 449.219> 311 72<100 161 270 354> 631 63<322 561.854>
VStem: 654 93<300.529 531.394>
CounterMasks: 1 e0
AnchorPoint: "top" 475 731 basechar 0
AnchorPoint: "below" 366 -27 basechar 0
LayerCount: 2
Fore
SplineSet
360 0 m 2
 95 0 l 1
 161 311 l 1
 84 311 l 1
 100 383 l 1
 177 383 l 1
 243 694 l 1
 505 694 l 2
 591 694 656 659 701 590 c 0
 732 543 747 490 747 430 c 0
 747 401 744 371 737 340 c 0
 718 249 673 171 604 105 c 0
 531 35 449 0 360 0 c 2
622 551 m 0
 589 604 539 631 470 631 c 2
 322 631 l 1
 270 383 l 1
 370 383 l 1
 354 311 l 1
 254 311 l 1
 202 63 l 1
 348 63 l 2
 505 63 615 202 644 342 c 0
 651 372 654 400 654 427 c 0
 654 475 643 516 622 551 c 0
EndSplineSet
Position2: "'cpsp' Capital Spacing lookup 0 subtable" dx=7 dy=0 dh=14 dv=0
EndChar

StartChar: dcroat
Encoding: 273 273 209
Width: 517
GlyphClass: 2
Flags: W
HStem: -11 68<198.527 303.608> -0 21G<351 440.256> 389 69<263.756 401.081> 531 71<332 467 564 625> 674 20G<497.652 584>
VStem: 75 86<94.61 269.291>
AnchorPoint: "top" 418 715 basechar 0
LayerCount: 2
Fore
SplineSet
625 531 m 1xbc
 549 531 l 1
 436 -0 l 1
 351 -0 l 1x7c
 361 45 l 1
 312 8 261 -11 208 -11 c 0
 159 -11 123 12 98 58 c 0
 83 87 75 119 75 156 c 0
 75 177 78 200 83 224 c 0
 106 330 195 458 311 458 c 0
 362 458 405 441 440 407 c 1
 467 531 l 1
 317 531 l 1
 332 602 l 1
 482 602 l 1
 502 694 l 1
 584 694 l 1
 564 602 l 1
 641 602 l 1
 625 531 l 1xbc
161 166 m 0
 161 100 203 57 261 57 c 0xbc
 286 57 311 65 337 82 c 0
 363 99 377 119 382 142 c 2
 423 339 l 1
 406 372 380 389 343 389 c 0
 248 389 185 307 168 222 c 0
 163 201 161 183 161 166 c 0
EndSplineSet
EndChar

StartChar: Emacron
Encoding: 274 274 210
Width: 597
GlyphClass: 2
Flags: W
HStem: 0 77<205 555> 326 68<273 584> 620 72<320 672> 749 71<291 641>
AnchorPoint: "topright" 691 430 basechar 0
AnchorPoint: "bottom" 402 2 basechar 0
AnchorPoint: "top" 498 919 basechar 0
AnchorPoint: "below" 352 -22 basechar 0
AnchorPoint: "overlap" 422 360 basechar 0
LayerCount: 2
Fore
SplineSet
641 749 m 1
 277 749 l 1
 291 820 l 1
 655 820 l 1
 641 749 l 1
672 620 m 1
 471 620 l 2
 463 621 457 621 453 621 c 2
 320 621 l 1
 273 394 l 1
 598 394 l 1
 584 326 l 1
 258 326 l 1
 205 77 l 1
 407 77 l 2
 411 77 417 77 425 78 c 2
 571 78 l 1
 555 0 l 1
 93 0 l 1
 240 692 l 1
 688 692 l 1
 672 620 l 1
EndSplineSet
Position2: "'cpsp' Capital Spacing lookup 0 subtable" dx=7 dy=0 dh=14 dv=0
EndChar

StartChar: emacron
Encoding: 275 275 211
Width: 444
GlyphClass: 2
Flags: W
HStem: -11 68<199.62 359.045> 216 62<176 410.158> 395 68<255.198 381.567> 572 71<178 525>
VStem: 77 78<104.648 216> 410 62<278.052 363.938>
AnchorPoint: "topright" 501 430 basechar 0
AnchorPoint: "bottom" 250 -6 basechar 0
AnchorPoint: "top" 368 705 basechar 0
AnchorPoint: "below" 251 -34 basechar 0
AnchorPoint: "overlap" 291 241 basechar 0
AnchorPoint: "hook" 373 31 basechar 0
LayerCount: 2
Fore
SplineSet
525 572 m 1
 163 572 l 1
 178 643 l 1
 541 643 l 1
 525 572 l 1
155 181 m 0
 155 113 196 57 264 57 c 0
 317 57 373 77 430 117 c 1
 421 42 l 1
 364 7 307 -11 250 -11 c 0
 189 -11 143 12 111 59 c 0
 88 91 77 128 77 171 c 0
 77 189 79 208 83 228 c 0
 96 289 125 343 170 389 c 0
 219 438 274 463 334 463 c 0
 426 463 472 411 472 307 c 0
 472 280 469 250 462 216 c 1
 158 216 l 1
 156 204 155 192 155 181 c 0
410 278 m 1
 414 347 386 395 321 395 c 0
 255 395 199 330 176 278 c 1
 410 278 l 1
EndSplineSet
EndChar

StartChar: Ebreve
Encoding: 276 276 212
Width: 597
GlyphClass: 2
Flags: W
HStem: 0 77<205 555> 326 69<273 584> 621 72<320 672> 740 74<416.094 538.335>
VStem: 320 70<839.86 924> 597 68<874.116 924>
AnchorPoint: "topright" 691 430 basechar 0
AnchorPoint: "bottom" 402 2 basechar 0
AnchorPoint: "top" 492 925 basechar 0
AnchorPoint: "below" 352 -22 basechar 0
AnchorPoint: "overlap" 419 355 basechar 0
LayerCount: 2
Fore
SplineSet
472 814 m 0
 537 814 585 869 597 924 c 1
 665 924 l 1
 652 869 626 824 586 790 c 0
 546 756 502 740 456 740 c 0
 376 740 320 800 320 880 c 0
 320 894 322 909 325 924 c 1
 393 924 l 1
 391 914 390 905 390 896 c 0
 390 846 426 814 472 814 c 0
672 621 m 1
 471 621 l 2
 463 622 457 622 453 622 c 2
 320 622 l 1
 273 395 l 1
 598 395 l 1
 584 326 l 1
 258 326 l 1
 205 77 l 1
 407 77 l 2
 411 77 417 77 425 78 c 2
 571 78 l 1
 555 0 l 1
 93 0 l 1
 240 693 l 1
 688 693 l 1
 672 621 l 1
EndSplineSet
Position2: "'cpsp' Capital Spacing lookup 0 subtable" dx=7 dy=0 dh=14 dv=0
EndChar

StartChar: ebreve
Encoding: 277 277 213
Width: 444
GlyphClass: 2
Flags: W
HStem: -11 68<199.62 359.045> 216 63<176 410.126> 395 69<255.198 381.352> 516 74<292.912 414.77> 680 20G<200.5 270 466.5 541>
VStem: 77 78<104.648 216> 197 69<615.909 700> 410 62<279.418 364.432> 473 68<651.63 700>
AnchorPoint: "topright" 491 430 basechar 0
AnchorPoint: "bottom" 250 -6 basechar 0
AnchorPoint: "top" 371 695 basechar 0
AnchorPoint: "below" 251 -34 basechar 0
AnchorPoint: "overlap" 290 245 basechar 0
AnchorPoint: "hook" 371 34 basechar 0
LayerCount: 2
Fore
SplineSet
347 590 m 0
 413 590 460 645 473 700 c 1
 541 700 l 1
 528 645 501 601 461 567 c 0
 421 533 378 516 333 516 c 0
 253 516 197 576 197 656 c 0
 197 670 199 685 202 700 c 1
 270 700 l 1
 267 689 266 679 266 670 c 0
 266 623 304 590 347 590 c 0
155 181 m 0
 155 113 196 57 264 57 c 0
 317 57 373 77 430 117 c 1
 421 42 l 1
 364 7 307 -11 250 -11 c 0
 189 -11 143 12 111 59 c 0
 88 91 77 128 77 171 c 0
 77 189 79 208 83 228 c 0
 96 289 125 343 170 389 c 0
 219 439 274 464 334 464 c 0
 426 464 472 412 472 307 c 0
 472 280 469 250 462 216 c 1
 158 216 l 1
 156 204 155 192 155 181 c 0
410 279 m 1
 414 347 385 395 321 395 c 0
 255 395 199 330 176 279 c 1
 410 279 l 1
EndSplineSet
EndChar

StartChar: Edotaccent
Encoding: 278 278 214
Width: 597
GlyphClass: 2
Flags: W
HStem: 0 77<205 555> 326 68<273 584> 620 72<320 672> 729 96<425 501>
AnchorPoint: "topright" 691 430 basechar 0
AnchorPoint: "bottom" 402 2 basechar 0
AnchorPoint: "top" 478 915 basechar 0
AnchorPoint: "below" 352 -22 basechar 0
AnchorPoint: "overlap" 413 355 basechar 0
LayerCount: 2
Fore
SplineSet
501 729 m 1
 405 729 l 1
 425 825 l 1
 521 825 l 1
 501 729 l 1
672 620 m 1
 471 620 l 2
 463 621 457 621 453 621 c 2
 320 621 l 1
 273 394 l 1
 598 394 l 1
 584 326 l 1
 258 326 l 1
 205 77 l 1
 407 77 l 2
 411 77 417 77 425 78 c 2
 571 78 l 1
 555 0 l 1
 93 0 l 1
 240 692 l 1
 688 692 l 1
 672 620 l 1
EndSplineSet
Position2: "'cpsp' Capital Spacing lookup 0 subtable" dx=7 dy=0 dh=14 dv=0
EndChar

StartChar: edotaccent
Encoding: 279 279 215
Width: 444
GlyphClass: 2
Flags: W
HStem: -11 68<199.105 358.045> 216 63<176 409.126> 395 68<254.888 380.352> 559 96<312 387>
VStem: 77 78<103.955 216> 409 62<279.418 363.938>
AnchorPoint: "topright" 471 430 basechar 0
AnchorPoint: "bottom" 250 -6 basechar 0
AnchorPoint: "top" 362 687 basechar 0
AnchorPoint: "below" 251 -34 basechar 0
AnchorPoint: "overlap" 294 248 basechar 0
AnchorPoint: "hook" 373 35 basechar 0
LayerCount: 2
Fore
SplineSet
387 559 m 1
 292 559 l 1
 312 655 l 1
 407 655 l 1
 387 559 l 1
155 181 m 0
 155 113 195 57 263 57 c 0
 316 57 372 77 429 117 c 1
 420 42 l 1
 363 7 306 -11 249 -11 c 0
 189 -11 143 12 111 59 c 0
 88 91 77 128 77 171 c 0
 77 189 79 208 83 228 c 0
 96 289 125 342 170 389 c 0
 219 438 274 463 333 463 c 0
 425 463 471 411 471 307 c 0
 471 280 467 250 460 216 c 1
 158 216 l 1
 156 204 155 192 155 181 c 0
409 279 m 1
 413 347 384 395 320 395 c 0
 254 395 200 331 176 279 c 1
 409 279 l 1
EndSplineSet
EndChar

StartChar: Eogonek
Encoding: 280 280 216
Width: 597
GlyphClass: 2
Flags: W
HStem: -2 77<205 430 469.64 555> 324 69<273 584> 619 72<320 672>
AnchorPoint: "topright" 691 430 basechar 0
AnchorPoint: "top" 488 751 basechar 0
AnchorPoint: "below" 352 -232 basechar 0
AnchorPoint: "overlap" 421 359 basechar 0
LayerCount: 2
Fore
SplineSet
672 619 m 1
 471 619 l 2
 463 620 457 620 453 620 c 2
 320 620 l 1
 273 393 l 1
 598 393 l 1
 584 324 l 1
 258 324 l 1
 205 75 l 1
 407 75 l 2
 411 75 417 75 425 76 c 2
 571 76 l 1
 555 -2 l 1
 508 -2 l 1
 443 -35 408 -69 402 -102 c 0
 397 -129 417 -133 443 -135 c 0
 460 -136 484 -130 515 -119 c 1
 516 -186 l 1
 476 -203 441 -212 411 -212 c 0
 355 -212 317 -181 327 -123 c 0
 334 -82 368 -42 430 -2 c 1
 93 -2 l 1
 240 691 l 1
 688 691 l 1
 672 619 l 1
EndSplineSet
Position2: "'cpsp' Capital Spacing lookup 0 subtable" dx=7 dy=0 dh=14 dv=0
EndChar

StartChar: eogonek
Encoding: 281 281 217
Width: 444
GlyphClass: 2
Flags: W
HStem: -212 93<230.125 331.882> 214 62<176 409.126> 393 68<254.888 379.498>
VStem: 77 78<101.186 214> 409 62<276.052 361.938>
AnchorPoint: "topright" 473 431 basechar 0
AnchorPoint: "top" 342 505 basechar 0
AnchorPoint: "below" 251 -224 basechar 0
AnchorPoint: "overlap" 296 244 basechar 0
LayerCount: 2
Fore
SplineSet
155 178 m 0
 155 108 196 55 263 55 c 0
 316 55 372 75 429 114 c 1
 420 40 l 1
 395 24 367 11 336 1 c 1
 271 -32 235 -67 229 -102 c 0
 220 -154 304 -133 342 -119 c 1
 343 -186 l 1
 303 -203 268 -212 238 -212 c 0
 181 -212 145 -180 154 -123 c 0
 161 -82 189 -45 236 -13 c 1
 183 -10 141 14 111 57 c 0
 88 89 77 126 77 168 c 0
 77 187 79 206 83 226 c 0
 96 287 125 340 170 386 c 0
 219 436 274 461 333 461 c 0
 425 461 471 409 471 305 c 0
 471 278 467 248 460 214 c 1
 158 214 l 1
 156 201 155 189 155 178 c 0
409 276 m 1
 413 344 384 393 320 393 c 0
 254 393 200 328 176 276 c 1
 409 276 l 1
EndSplineSet
EndChar

StartChar: Ecaron
Encoding: 282 282 218
Width: 597
GlyphClass: 2
Flags: W
HStem: 0 77<205 555> 326 68<273 584> 620 73<320 672>
AnchorPoint: "topright" 691 430 basechar 0
AnchorPoint: "bottom" 402 2 basechar 0
AnchorPoint: "top" 484 875 basechar 0
AnchorPoint: "below" 352 -22 basechar 0
AnchorPoint: "overlap" 419 358 basechar 0
LayerCount: 2
Fore
SplineSet
485 729 m 1
 423 729 l 1
 321 870 l 1
 389 870 l 1
 463 776 l 1
 577 870 l 1
 647 870 l 1
 485 729 l 1
672 620 m 1
 489 620 l 2
 485 620 479 620 471 621 c 2
 320 621 l 1
 273 394 l 1
 598 394 l 1
 584 326 l 1
 258 326 l 1
 205 77 l 1
 407 77 l 2
 411 77 417 77 425 78 c 2
 571 78 l 1
 555 0 l 1
 93 0 l 1
 240 693 l 1
 688 693 l 1
 672 620 l 1
EndSplineSet
Position2: "'cpsp' Capital Spacing lookup 0 subtable" dx=7 dy=0 dh=14 dv=0
EndChar

StartChar: ecaron
Encoding: 283 283 219
Width: 444
GlyphClass: 2
Flags: W
HStem: -11 68<199.62 359.045> 216 63<176 409.387> 395 69<255.24 379.982> 677 20G<210 288.261 441.336 530>
VStem: 77 78<104.648 216> 409 63<279.418 364.432>
AnchorPoint: "topright" 480 429 basechar 0
AnchorPoint: "bottom" 250 -6 basechar 0
AnchorPoint: "top" 368 696 basechar 0
AnchorPoint: "below" 251 -34 basechar 0
AnchorPoint: "overlap" 297 247 basechar 0
AnchorPoint: "hook" 371 35 basechar 0
LayerCount: 2
Fore
SplineSet
365 519 m 1
 302 519 l 1
 210 697 l 1
 277 697 l 1
 344 578 l 1
 461 697 l 1
 530 697 l 1
 365 519 l 1
155 181 m 0
 155 113 196 57 264 57 c 0
 317 57 373 77 430 117 c 1
 421 42 l 1
 364 7 307 -11 250 -11 c 0
 189 -11 143 12 111 59 c 0
 88 91 77 128 77 171 c 0
 77 189 79 208 83 228 c 0
 96 289 125 343 170 389 c 0
 219 439 274 464 333 464 c 0
 426 464 472 412 472 307 c 0
 472 280 468 250 461 216 c 1
 158 216 l 1
 156 204 155 192 155 181 c 0
409 279 m 1
 414 346 384 395 321 395 c 0
 255 395 200 331 176 279 c 1
 409 279 l 1
EndSplineSet
EndChar

StartChar: Gcircumflex
Encoding: 284 284 220
Width: 667
GlyphClass: 2
Flags: W
HStem: -11 71<317.389 529.993> 237 68<449 564> 636 71<430.97 627.029>
VStem: 130 97<165.323 391.921>
AnchorPoint: "topright" 751 430 basechar 0
AnchorPoint: "top" 521 927 basechar 0
AnchorPoint: "below" 408 -50 basechar 0
AnchorPoint: "overlap" 403 323 basechar 0
LayerCount: 2
Fore
SplineSet
582 729 m 1
 508 824 l 1
 394 729 l 1
 324 729 l 1
 486 870 l 1
 548 870 l 1
 650 729 l 1
 582 729 l 1
695 566 m 1
 650 613 592 636 523 636 c 0
 460 636 401 608 345 552 c 0
 289 496 253 428 236 347 c 0
 230 320 227 294 227 269 c 0
 227 222 238 181 259 144 c 0
 291 88 338 60 399 60 c 0
 444 60 488 67 531 80 c 1
 564 237 l 1
 434 237 l 1
 449 305 l 1
 664 305 l 1
 607 39 l 1
 533 6 460 -11 387 -11 c 0
 298 -11 229 24 180 95 c 0
 147 144 130 199 130 261 c 0
 130 289 133 318 140 349 c 0
 161 444 207 527 280 596 c 0
 357 670 443 707 537 707 c 0
 610 707 675 690 730 656 c 1
 695 566 l 1
EndSplineSet
Position2: "'cpsp' Capital Spacing lookup 0 subtable" dx=7 dy=0 dh=14 dv=0
EndChar

StartChar: gcircumflex
Encoding: 285 285 221
Width: 500
GlyphClass: 2
Flags: W
HStem: -206 64<119.928 327.095> -5 80<151.529 367.988> 126 64<209.936 321.593> 390 67<437.651 566.647> 393 64<244.541 357.977> 677 20G<312.348 404.337>
VStem: 11 79<-114.628 -30.1559> 119 76<205.047 338.718>
AnchorPoint: "topright" 591 428 basechar 0
AnchorPoint: "top" 369 723 basechar 0
AnchorPoint: "overlap" 279 292 basechar 0
LayerCount: 2
Fore
SplineSet
419 519 m 1xe7
 351 638 l 1
 233 519 l 1
 165 519 l 1
 331 697 l 1
 394 697 l 1
 486 519 l 1
 419 519 l 1xe7
436 386 m 1
 449 358 452 326 445 291 c 0
 427 209 346 126 249 126 c 0
 216 126 188 135 166 153 c 1
 155 140 149 125 149 108 c 0
 149 86 164 75 193 75 c 2
 280 75 l 2
 315 75 352 69 392 58 c 0
 450 41 472 -1 458 -68 c 0
 449 -113 415 -148 356 -174 c 0
 309 -195 259 -206 206 -206 c 0
 145 -206 95 -193 58 -166 c 0
 27 -144 11 -118 11 -87 c 0
 11 -36 39 4 96 35 c 1
 85 56 82 81 88 110 c 0
 94 139 109 167 133 194 c 1
 124 213 119 234 119 256 c 0
 119 316 144 367 194 409 c 0
 233 441 274 457 318 457 c 0
 355 457 384 447 405 426 c 1
 458 447 514 457 571 457 c 1xef
 568 386 l 1
 539 389 519 390 507 390 c 0xf7
 493 390 449 386 436 386 c 1
195 256 m 0
 195 214 224 190 261 190 c 0
 320 190 355 237 368 292 c 0
 381 352 361 393 306 393 c 0
 236 393 195 326 195 256 c 0
336 -13 m 0
 309 -8 286 -5 265 -5 c 2
 177 -5 l 2
 144 -5 121 -15 108 -34 c 0
 97 -49 91 -61 90 -68 c 2
 90 -69 l 1
 79 -121 161 -142 219 -142 c 0
 251 -142 282 -137 313 -126 c 0
 353 -112 376 -93 381 -68 c 0
 387 -39 372 -20 336 -13 c 0
EndSplineSet
EndChar

StartChar: Gbreve
Encoding: 286 286 222
Width: 667
GlyphClass: 2
Flags: W
HStem: -11 71<317.389 529.993> 237 68<449 564> 636 72<430.97 627.029> 740 74<450.094 573.555>
VStem: 130 97<165.323 391.921> 354 70<839.86 924> 631 68<873.673 924>
AnchorPoint: "topright" 751 430 basechar 0
AnchorPoint: "top" 527 929 basechar 0
AnchorPoint: "below" 408 -50 basechar 0
AnchorPoint: "overlap" 403 323 basechar 0
LayerCount: 2
Fore
SplineSet
506 814 m 0
 572 814 619 868 631 924 c 1
 699 924 l 1
 686 869 660 824 620 790 c 0
 580 756 536 740 490 740 c 0
 410 740 354 800 354 880 c 0
 354 894 356 909 359 924 c 1
 427 924 l 1
 425 914 424 905 424 896 c 0
 424 846 460 814 506 814 c 0
695 566 m 1
 650 613 592 636 523 636 c 0
 460 636 401 608 345 552 c 0
 289 496 253 428 236 347 c 0
 230 320 227 294 227 269 c 0
 227 222 238 181 259 144 c 0
 291 88 338 60 399 60 c 0
 444 60 488 67 531 80 c 1
 564 237 l 1
 434 237 l 1
 449 305 l 1
 664 305 l 1
 607 39 l 1
 533 6 460 -11 387 -11 c 0
 298 -11 229 24 180 95 c 0
 147 144 130 199 130 261 c 0
 130 289 133 318 140 349 c 0
 161 444 207 527 280 596 c 0
 357 671 443 708 537 708 c 0
 610 708 675 691 730 656 c 1
 695 566 l 1
EndSplineSet
Position2: "'cpsp' Capital Spacing lookup 0 subtable" dx=7 dy=0 dh=14 dv=0
EndChar

StartChar: gbreve
Encoding: 287 287 223
Width: 500
GlyphClass: 2
Flags: W
HStem: -206 64<119.928 327.095> -5 80<151.529 367.988> 126 64<209.936 321.593> 390 67<437.651 566.647> 393 64<244.541 357.977> 516 74<284.07 407.552> 680 20G<192.5 262 459.5 535>
VStem: 11 79<-114.628 -30.1559> 119 76<205.047 338.718> 190 69<615.249 700>
AnchorPoint: "topright" 597 432 basechar 0
AnchorPoint: "top" 359 703 basechar 0
AnchorPoint: "overlap" 287 296 basechar 0
LayerCount: 2
Fore
SplineSet
340 590 m 0xe740
 405 590 453 644 466 700 c 1
 535 700 l 1
 522 645 494 601 454 567 c 0
 414 533 371 516 326 516 c 0
 246 516 190 575 190 655 c 0
 190 669 191 684 194 700 c 1
 262 700 l 1
 260 689 259 679 259 670 c 0
 259 622 296 590 340 590 c 0xe740
436 386 m 1
 449 358 452 326 445 291 c 0
 427 209 346 126 249 126 c 0
 216 126 188 135 166 153 c 1
 155 140 149 125 149 108 c 0
 149 86 164 75 193 75 c 2
 280 75 l 2
 315 75 352 69 392 58 c 0
 450 41 472 -1 458 -68 c 0
 449 -113 415 -148 356 -174 c 0
 309 -195 259 -206 206 -206 c 0
 145 -206 95 -193 58 -166 c 0
 27 -144 11 -118 11 -87 c 0
 11 -36 39 4 96 35 c 1
 85 56 82 81 88 110 c 0
 94 139 109 167 133 194 c 1
 124 213 119 234 119 256 c 0
 119 316 144 367 194 409 c 0
 233 441 274 457 318 457 c 0
 355 457 384 447 405 426 c 1
 458 447 514 457 571 457 c 1xef80
 568 386 l 1
 539 389 519 390 507 390 c 0xf780
 493 390 449 386 436 386 c 1
195 256 m 0
 195 214 224 190 261 190 c 0
 320 190 355 237 368 292 c 0
 381 352 361 393 306 393 c 0
 236 393 195 326 195 256 c 0
336 -13 m 0
 309 -8 286 -5 265 -5 c 2
 177 -5 l 2
 144 -5 121 -15 108 -34 c 0
 97 -49 91 -61 90 -68 c 2
 90 -69 l 1
 79 -121 161 -142 219 -142 c 0
 251 -142 282 -137 313 -126 c 0
 353 -112 376 -93 381 -68 c 0
 387 -39 372 -20 336 -13 c 0
EndSplineSet
EndChar

StartChar: Gdotaccent
Encoding: 288 288 224
Width: 667
GlyphClass: 2
Flags: W
HStem: -11 71<317.389 529.993> 237 68<449 564> 636 71<430.97 625.488> 729 96<460 536>
VStem: 130 97<164.951 391.423>
AnchorPoint: "topright" 751 430 basechar 0
AnchorPoint: "top" 515 879 basechar 0
AnchorPoint: "below" 408 -50 basechar 0
AnchorPoint: "overlap" 403 323 basechar 0
LayerCount: 2
Fore
SplineSet
536 729 m 1
 440 729 l 1
 460 825 l 1
 556 825 l 1
 536 729 l 1
695 565 m 1
 650 612 592 636 523 636 c 0
 460 636 401 608 345 552 c 0
 289 496 253 428 236 347 c 0
 230 320 227 294 227 269 c 0
 227 222 238 181 259 144 c 0
 291 88 338 60 399 60 c 0
 444 60 488 67 531 80 c 1
 564 237 l 1
 434 237 l 1
 449 305 l 1
 664 305 l 1
 607 39 l 1
 533 6 460 -11 387 -11 c 0
 298 -11 229 24 180 95 c 0
 147 143 130 198 130 261 c 0
 130 289 133 318 140 348 c 0
 161 443 207 526 280 596 c 0
 357 670 443 707 537 707 c 0
 610 707 675 690 730 655 c 1
 695 565 l 1
EndSplineSet
Position2: "'cpsp' Capital Spacing lookup 0 subtable" dx=7 dy=0 dh=14 dv=0
EndChar

StartChar: gdotaccent
Encoding: 289 289 225
Width: 500
GlyphClass: 2
Flags: W
HStem: -206 64<119.928 327.926> -5 79<151.529 367.988> 126 64<209.936 321.593> 392 65<244.985 357.77 437.651 566.647> 559 96<306 381>
VStem: 11 79<-114.628 -30.5856> 119 76<205.047 337.539>
AnchorPoint: "topright" 591 434 basechar 0
AnchorPoint: "top" 357 683 basechar 0
AnchorPoint: "overlap" 291 296 basechar 0
LayerCount: 2
Fore
SplineSet
381 559 m 1
 285 559 l 1
 306 655 l 1
 401 655 l 1
 381 559 l 1
436 386 m 1
 449 357 452 326 445 291 c 0
 427 209 346 126 249 126 c 0
 216 126 188 135 166 153 c 1
 155 140 149 125 149 108 c 0
 149 85 164 74 193 74 c 2
 280 74 l 2
 315 74 352 68 392 57 c 0
 450 41 472 -1 458 -68 c 0
 449 -113 415 -148 356 -174 c 0
 309 -195 259 -206 206 -206 c 0
 145 -206 95 -193 58 -166 c 0
 27 -144 11 -118 11 -87 c 0
 11 -37 39 4 96 35 c 1
 85 56 82 81 88 110 c 0
 94 139 109 167 133 194 c 1
 124 213 119 234 119 256 c 0
 119 316 144 367 194 409 c 0
 233 441 274 457 318 457 c 0
 355 457 384 447 405 426 c 1
 458 447 514 457 571 457 c 1
 568 386 l 1
 539 388 519 389 507 389 c 0
 493 389 449 386 436 386 c 1
195 256 m 0
 195 214 224 190 261 190 c 0
 320 190 355 237 368 292 c 0
 381 352 360 392 306 392 c 0
 238 392 195 327 195 256 c 0
336 -13 m 0
 309 -8 286 -5 265 -5 c 2
 177 -5 l 2
 144 -5 121 -15 108 -34 c 0
 97 -49 91 -61 90 -68 c 2
 90 -69 l 1
 79 -121 161 -142 219 -142 c 0
 251 -142 282 -137 313 -126 c 0
 353 -113 376 -93 381 -68 c 0
 387 -39 372 -20 336 -13 c 0
EndSplineSet
EndChar

StartChar: Gcommaaccent
Encoding: 290 290 226
Width: 667
GlyphClass: 2
Flags: W
HStem: -13 71<317.389 529.993> 235 68<449 564> 635 71<430.97 625.488>
VStem: 130 97<163.323 389.967>
AnchorPoint: "topright" 751 430 basechar 0
AnchorPoint: "top" 549 745 basechar 0
AnchorPoint: "below" 376 -288 basechar 0
AnchorPoint: "overlap" 403 323 basechar 0
LayerCount: 2
Fore
SplineSet
695 564 m 1
 650 611 592 635 523 635 c 0
 460 635 401 607 345 551 c 0
 289 495 253 426 236 345 c 0
 230 318 227 292 227 267 c 0
 227 220 238 179 259 142 c 0
 291 86 338 58 399 58 c 0
 444 58 488 65 531 78 c 1
 564 235 l 1
 434 235 l 1
 449 303 l 1
 664 303 l 1
 607 37 l 1
 533 4 460 -13 387 -13 c 0
 298 -13 229 22 180 93 c 0
 147 142 130 197 130 259 c 0
 130 287 133 316 140 347 c 0
 161 442 207 525 280 594 c 0
 357 669 443 706 537 706 c 0
 610 706 675 689 730 654 c 1
 695 564 l 1
342 -151 m 1
 280 -266 l 1
 236 -266 l 1
 281 -155 l 1
 260 -155 l 1
 278 -73 l 1
 359 -73 l 1
 342 -151 l 1
EndSplineSet
Position2: "'cpsp' Capital Spacing lookup 0 subtable" dx=7 dy=0 dh=14 dv=0
EndChar

StartChar: gcommaaccent
Encoding: 291 291 227
Width: 500
GlyphClass: 2
Flags: W
HStem: -206 64<120.374 327.095> -5 80<151.529 367.988> 126 65<209.936 322.73> 390 67<437.651 566.647> 393 64<244.775 357.77>
VStem: 11 79<-114.628 -30.1559> 119 76<205.787 338.385>
AnchorPoint: "topright" 593 436 basechar 0
AnchorPoint: "top" 397 771 basechar 0
AnchorPoint: "overlap" 283 296 basechar 0
LayerCount: 2
Fore
SplineSet
366 616 m 1xe6
 387 616 l 1
 369 534 l 1
 288 534 l 1
 305 612 l 1
 367 727 l 1
 411 727 l 1
 366 616 l 1xe6
436 386 m 1
 449 358 452 326 445 291 c 0
 427 209 346 126 249 126 c 0
 216 126 188 135 166 153 c 1
 155 141 149 126 149 108 c 0
 149 86 164 75 193 75 c 2
 280 75 l 2
 315 75 352 69 392 58 c 0
 450 41 472 -1 458 -68 c 0
 449 -113 415 -148 356 -174 c 0
 309 -195 259 -206 206 -206 c 0
 145 -206 95 -193 58 -166 c 0
 27 -144 11 -118 11 -87 c 0
 11 -36 39 4 96 35 c 1
 85 56 82 81 88 110 c 0
 94 139 109 167 133 194 c 1
 124 213 119 234 119 257 c 0
 119 268 120 280 122 293 c 0
 140 375 221 457 318 457 c 0
 355 457 384 447 405 426 c 1
 458 447 514 457 571 457 c 1xee
 568 387 l 1
 539 389 519 390 507 390 c 0xf6
 493 390 449 386 436 386 c 1
195 256 m 0
 195 214 224 191 261 191 c 0
 321 191 355 237 368 293 c 0
 381 352 360 393 306 393 c 0
 236 393 195 326 195 256 c 0
336 -13 m 0
 309 -8 286 -5 265 -5 c 2
 177 -5 l 2
 144 -5 121 -15 108 -34 c 0
 97 -49 91 -61 90 -68 c 2
 90 -69 l 1
 85 -95 100 -114 135 -127 c 0
 160 -137 188 -142 219 -142 c 0
 251 -142 282 -137 313 -126 c 0
 353 -112 376 -93 381 -68 c 0
 387 -39 372 -20 336 -13 c 0
EndSplineSet
EndChar

StartChar: Hcircumflex
Encoding: 292 292 228
Width: 708
GlyphClass: 2
Flags: W
HStem: 0 21G<93 193.22 518 618.253> 327 68<273 587> 676 20G<236.747 337 661.748 762>
AnchorPoint: "topright" 761 430 basechar 0
AnchorPoint: "bottom" 179 5 basechar 0
AnchorPoint: "top" 539 901 basechar 0
AnchorPoint: "below" 379 -21 basechar 0
AnchorPoint: "overlap" 430 359 basechar 0
LayerCount: 2
Fore
SplineSet
603 729 m 1
 529 824 l 1
 415 729 l 1
 344 729 l 1
 507 870 l 1
 569 870 l 1
 671 729 l 1
 603 729 l 1
614 0 m 1
 518 0 l 1
 587 327 l 1
 258 327 l 1
 189 0 l 1
 93 0 l 1
 241 696 l 1
 337 696 l 1
 273 395 l 1
 602 395 l 1
 666 696 l 1
 762 696 l 1
 614 0 l 1
EndSplineSet
Position2: "'cpsp' Capital Spacing lookup 0 subtable" dx=7 dy=0 dh=14 dv=0
EndChar

StartChar: hcircumflex
Encoding: 293 293 229
Width: 517
GlyphClass: 2
Flags: W
HStem: 0 21G<80 169.228 352 440.228> 390 69<304.045 404.512> 676 20G<222.776 309>
VStem: 418 88<228.531 375.935>
AnchorPoint: "topright" 550 488 basechar 0
AnchorPoint: "bottom" 403 4 basechar 0
AnchorPoint: "top" 455 915 basechar 0
AnchorPoint: "below" 267 -20 basechar 0
AnchorPoint: "overlap" 338 262 basechar 0
AnchorPoint: "hook" 405 4 basechar 0
LayerCount: 2
Fore
SplineSet
506 729 m 1
 433 824 l 1
 319 729 l 1
 249 729 l 1
 410 870 l 1
 473 870 l 1
 574 729 l 1
 506 729 l 1
436 0 m 1
 352 0 l 1
 414 293 l 2
 417 306 418 317 418 327 c 0
 418 369 393 390 344 390 c 0
 271 390 231 314 217 246 c 2
 165 0 l 1
 80 0 l 1
 227 696 l 1
 309 696 l 1
 245 395 l 1
 290 438 340 459 394 459 c 0
 469 459 506 424 506 354 c 0
 506 337 504 319 499 298 c 2
 436 0 l 1
EndSplineSet
EndChar

StartChar: Hbar
Encoding: 294 294 230
Width: 708
GlyphClass: 2
Flags: W
HStem: 0 21G<93 193.233 518 618.265> 326 68<273 587> 483 72<160 196 307 621 733 768> 674 20G<236.683 337 661.683 762>
AnchorPoint: "top" 509 707 basechar 0
AnchorPoint: "below" 378 -22 basechar 0
LayerCount: 2
Fore
SplineSet
768 483 m 1
 717 483 l 1
 614 0 l 1
 518 0 l 1
 587 326 l 1
 258 326 l 1
 189 0 l 1
 93 0 l 1
 196 483 l 1
 144 483 l 1
 160 555 l 1
 211 555 l 1
 241 694 l 1
 337 694 l 1
 307 555 l 1
 636 555 l 1
 666 694 l 1
 762 694 l 1
 733 555 l 1
 784 555 l 1
 768 483 l 1
292 483 m 1
 273 394 l 1
 602 394 l 1
 621 483 l 1
 292 483 l 1
EndSplineSet
Position2: "'cpsp' Capital Spacing lookup 0 subtable" dx=7 dy=0 dh=14 dv=0
EndChar

StartChar: hbar
Encoding: 295 295 231
Width: 517
GlyphClass: 2
Flags: W
HStem: 0 21G<80 169.163 351 440.161> 390 68<303.894 403.445> 531 71<131 192 289 374> 674 20G<222.652 309>
VStem: 417 87<223.531 375.383>
AnchorPoint: "bottom" 398 4 basechar 0
AnchorPoint: "top" 437 716 basechar 0
AnchorPoint: "below" 288 -20 basechar 0
LayerCount: 2
Fore
SplineSet
436 0 m 1
 351 0 l 1
 413 292 l 2
 416 305 417 316 417 326 c 0
 417 369 392 390 343 390 c 0
 272 390 230 312 216 245 c 2
 165 0 l 1
 80 0 l 1
 192 531 l 1
 115 531 l 1
 131 602 l 1
 207 602 l 1
 227 694 l 1
 309 694 l 1
 289 602 l 1
 389 602 l 1
 374 531 l 1
 274 531 l 1
 245 394 l 1
 290 437 340 458 393 458 c 0
 467 458 504 423 504 353 c 0
 504 336 502 318 498 298 c 2
 436 0 l 1
EndSplineSet
EndChar

StartChar: Itilde
Encoding: 296 296 232
Width: 278
GlyphClass: 2
Flags: W
HStem: 0 21G<93 192.23> 675 20G<235.77 335> 729 69<326.996 407.39> 787 68<209.591 288.662>
VStem: 127 68<729 774.085> 421 68<808.91 855>
AnchorPoint: "topright" 371 430 basechar 0
AnchorPoint: "bottom" 139 6 basechar 0
AnchorPoint: "top" 317 896 basechar 0
AnchorPoint: "below" 137 -25 basechar 0
AnchorPoint: "overlap" 210 323 basechar 0
LayerCount: 2
Fore
SplineSet
363 729 m 0xec
 346 729 324 739 299 758 c 0
 274 777 255 787 243 787 c 0xdc
 221 787 205 768 195 729 c 1
 127 729 l 1xec
 136 770 153 801 178 823 c 0
 203 845 228 855 254 855 c 0xdc
 271 855 292 846 317 827 c 0
 342 808 361 798 373 798 c 0xec
 396 798 412 817 421 855 c 1
 489 855 l 1xdc
 480 814 463 784 438 762 c 0
 413 740 388 729 363 729 c 0xec
188 0 m 1
 93 0 l 1
 240 695 l 1
 335 695 l 1
 188 0 l 1
EndSplineSet
Position2: "'cpsp' Capital Spacing lookup 0 subtable" dx=7 dy=0 dh=14 dv=0
EndChar

StartChar: itilde
Encoding: 297 297 233
Width: 239
GlyphClass: 2
Flags: W
HStem: -0 21G<80 165.206> 427 20G<168.839 255> 544 69<265.946 347.407> 602 68<150.285 229.647>
VStem: 69 68<544 590.626> 361 68<624.18 670>
AnchorPoint: "topright" 374 431 basechar 0
AnchorPoint: "topleft" 19 428 basechar 0
AnchorPoint: "top" 260 684 basechar 0
AnchorPoint: "below" 119 -22 basechar 0
LayerCount: 2
Fore
SplineSet
304 544 m 0xec
 287 544 266 554 240 573 c 0
 214 592 195 602 183 602 c 0xdc
 161 602 146 583 137 544 c 1
 69 544 l 1xec
 78 585 95 616 119 638 c 0
 143 660 169 670 194 670 c 0xdc
 213 670 233 661 254 644 c 0
 280 623 300 613 315 613 c 0xec
 337 613 352 632 361 670 c 1
 429 670 l 1xdc
 420 630 402 599 378 577 c 0
 354 555 329 544 304 544 c 0xec
161 -0 m 1
 80 -0 l 1
 173 447 l 1
 255 447 l 1
 161 -0 l 1
EndSplineSet
EndChar

StartChar: Imacron
Encoding: 298 298 234
Width: 278
GlyphClass: 2
Flags: W
HStem: 0 21G<93 192.23> 675 20G<235.77 335> 749 71<133 481>
AnchorPoint: "topright" 421 430 basechar 0
AnchorPoint: "bottom" 140 5 basechar 0
AnchorPoint: "top" 326 891 basechar 0
AnchorPoint: "below" 134 -21 basechar 0
AnchorPoint: "overlap" 213 335 basechar 0
LayerCount: 2
Fore
SplineSet
481 749 m 1
 119 749 l 1
 133 820 l 1
 495 820 l 1
 481 749 l 1
188 0 m 1
 93 0 l 1
 240 695 l 1
 335 695 l 1
 188 0 l 1
EndSplineSet
Position2: "'cpsp' Capital Spacing lookup 0 subtable" dx=7 dy=0 dh=14 dv=0
EndChar

StartChar: imacron
Encoding: 299 299 235
Width: 239
GlyphClass: 2
Flags: W
HStem: 0 21G<80 165.215> 426 20G<168.83 255> 572 71<76 423>
AnchorPoint: "topright" 395 435 basechar 0
AnchorPoint: "topleft" -5 435 basechar 0
AnchorPoint: "top" 252 667 basechar 0
AnchorPoint: "below" 111 -23 basechar 0
LayerCount: 2
Fore
SplineSet
423 572 m 1
 61 572 l 1
 76 643 l 1
 438 643 l 1
 423 572 l 1
161 0 m 1
 80 0 l 1
 173 446 l 1
 255 446 l 1
 161 0 l 1
EndSplineSet
EndChar

StartChar: Ibreve
Encoding: 300 300 236
Width: 278
GlyphClass: 2
Flags: W
HStem: 0 21G<93 192.224> 676 20G<235.776 335> 740 74<255.635 379.135>
VStem: 162 69<840.726 924> 437 68<873.673 924>
AnchorPoint: "topright" 371 430 basechar 0
AnchorPoint: "bottom" 150 6 basechar 0
AnchorPoint: "top" 336 925 basechar 0
AnchorPoint: "below" 138 -22 basechar 0
AnchorPoint: "overlap" 215 333 basechar 0
LayerCount: 2
Fore
SplineSet
313 814 m 0
 377 814 425 868 437 924 c 1
 505 924 l 1
 492 869 465 824 425 790 c 0
 385 756 342 740 297 740 c 0
 218 740 161 800 162 880 c 0
 162 894 163 909 166 924 c 1
 234 924 l 1
 232 914 231 905 231 896 c 0
 231 846 267 814 313 814 c 0
188 0 m 1
 93 0 l 1
 240 696 l 1
 335 696 l 1
 188 0 l 1
EndSplineSet
Position2: "'cpsp' Capital Spacing lookup 0 subtable" dx=7 dy=0 dh=14 dv=0
EndChar

StartChar: ibreve
Encoding: 301 301 237
Width: 239
GlyphClass: 2
Flags: W
HStem: 0 21G<80 165.206> 427 20G<169.794 255> 516 74<191.19 310.96> 680 20G<98.5 168 363.5 438>
VStem: 96 69<615.249 700> 370 68<652.014 700>
AnchorPoint: "topright" 371 431 basechar 0
AnchorPoint: "topleft" 26 424 basechar 0
AnchorPoint: "top" 267 696 basechar 0
AnchorPoint: "below" 113 -24 basechar 0
LayerCount: 2
Fore
SplineSet
245 590 m 0
 308 590 357 644 370 700 c 1
 438 700 l 1
 425 645 399 601 359 567 c 0
 319 533 276 516 231 516 c 0
 151 516 96 575 96 655 c 0
 96 669 97 684 100 700 c 1
 168 700 l 1
 166 689 165 679 165 670 c 0
 165 622 202 590 245 590 c 0
161 0 m 1
 80 0 l 1
 174 447 l 1
 255 447 l 1
 161 0 l 1
EndSplineSet
EndChar

StartChar: Iogonek
Encoding: 302 302 238
Width: 278
GlyphClass: 2
Flags: W
HStem: 674 20G<232.805 332>
VStem: 5 327
AnchorPoint: "topright" 371 430 basechar 0
AnchorPoint: "bottom" 103 -199 basechar 0
AnchorPoint: "top" 296 743 basechar 0
AnchorPoint: "below" 104 -274 basechar 0
AnchorPoint: "overlap" 209 323 basechar 0
LayerCount: 2
Fore
SplineSet
186 -1 m 1
 121 -34 85 -67 79 -102 c 0
 75 -129 94 -133 119 -135 c 0
 137 -136 161 -130 191 -119 c 1
 192 -186 l 1
 153 -203 118 -212 88 -212 c 0
 33 -212 -5 -181 5 -123 c 0
 14 -76 47 -35 105 -2 c 1
 91 -2 l 1
 237 694 l 1
 332 694 l 1
 186 -1 l 1
EndSplineSet
Position2: "'cpsp' Capital Spacing lookup 0 subtable" dx=7 dy=0 dh=14 dv=0
EndChar

StartChar: iogonek
Encoding: 303 303 239
Width: 239
GlyphClass: 2
Flags: W
HStem: 426 20G<166.848 252> 584 96<214 289>
VStem: -22 331
AnchorPoint: "topright" 305 430 basechar 0
AnchorPoint: "topleft" 95 429 basechar 0
AnchorPoint: "top" 278 729 basechar 0
AnchorPoint: "below" 71 -259 basechar 0
LayerCount: 2
Fore
SplineSet
289 584 m 1
 194 584 l 1
 214 680 l 1
 309 680 l 1
 289 584 l 1
78 -2 m 1
 171 446 l 1
 252 446 l 1
 159 -1 l 1
 94 -34 58 -67 52 -102 c 0
 48 -129 67 -133 92 -135 c 0
 110 -136 134 -130 164 -119 c 1
 165 -186 l 1
 126 -203 91 -212 61 -212 c 0
 6 -212 -32 -181 -22 -123 c 0
 -13 -76 20 -35 78 -2 c 1
EndSplineSet
EndChar

StartChar: Idotaccent
Encoding: 304 304 240
Width: 278
GlyphClass: 2
Flags: W
HStem: 0 21G<93 191.201> 675 20G<233.827 333> 729 96<265 339>
VStem: 93 266
AnchorPoint: "topright" 371 430 basechar 0
AnchorPoint: "bottom" 139 9 basechar 0
AnchorPoint: "top" 326 915 basechar 0
AnchorPoint: "below" 138 -34 basechar 0
AnchorPoint: "overlap" 215 367 basechar 0
LayerCount: 2
Fore
SplineSet
339 729 m 1
 244 729 l 1
 265 825 l 1
 359 825 l 1
 339 729 l 1
187 0 m 1
 93 0 l 1
 238 695 l 1
 333 695 l 1
 187 0 l 1
EndSplineSet
EndChar

StartChar: dotlessi
Encoding: 305 305 241
Width: 239
GlyphClass: 2
Flags: W
HStem: 0 21G<80 164.099> 424 20G<166.901 251>
VStem: 80 171
AnchorPoint: "topright" 261 430 basechar 0
AnchorPoint: "topleft" 100 449 basechar 0
AnchorPoint: "top" 216 481 basechar 0
AnchorPoint: "below" 121 -20 basechar 0
LayerCount: 2
Fore
SplineSet
160 0 m 1
 80 0 l 1
 171 444 l 1
 251 444 l 1
 160 0 l 1
EndSplineSet
EndChar

StartChar: I_J
Encoding: 306 306 242
Width: 722
GlyphClass: 3
Flags: W
HStem: -22 68<366.2 525.234> 0 21G<93 193.265> 674 20G<236.735 337 689.696 787>
AnchorPoint: "top" 517 704 basechar 0
AnchorPoint: "below" 368 -104 basechar 0
LayerCount: 2
Fore
SplineSet
326 106 m 1xa0
 351 71 388 46 442 46 c 0
 495 46 532 62 552 95 c 0
 566 117 575 137 578 155 c 2
 694 694 l 1
 787 694 l 1
 671 150 l 2
 650 51 574 -22 458 -22 c 0
 401 -22 346 -7 293 22 c 1
 326 106 l 1xa0
189 0 m 1x60
 93 0 l 1
 241 694 l 1
 337 694 l 1
 189 0 l 1x60
EndSplineSet
Ligature2: "'liga' Standard Ligatures lookup 9 subtable" I J
Position2: "'cpsp' Capital Spacing lookup 0 subtable" dx=7 dy=0 dh=14 dv=0
EndChar

StartChar: i_j
Encoding: 307 307 243
Width: 482
GlyphClass: 3
Flags: W
HStem: -205 71<160.507 281.42> -2 21G<80 166.196> 426 20G<169.804 256 408.804 495> 559 96<211 287 443 519>
VStem: 413 82<412.783 446>
AnchorPoint: "bottom" 244 -189 basechar 0
AnchorPoint: "top" 372 713 basechar 0
AnchorPoint: "below" 192 -294 basechar 0
LayerCount: 2
Fore
SplineSet
519 559 m 1
 423 559 l 1
 443 655 l 1
 539 655 l 1
 519 559 l 1
287 559 m 1
 191 559 l 1
 211 655 l 1
 307 655 l 1
 287 559 l 1
389 -57 m 2
 373 -130 314 -205 231 -205 c 0
 190 -205 152 -193 116 -169 c 1
 148 -100 l 1
 167 -123 190 -134 218 -134 c 0
 267 -134 297 -111 306 -64 c 2
 413 446 l 1
 495 446 l 1
 389 -57 l 2
162 -2 m 1
 80 -2 l 1
 174 446 l 1
 256 446 l 1
 162 -2 l 1
EndSplineSet
Ligature2: "'liga' Standard Ligatures lookup 9 subtable" i j
EndChar

StartChar: Jcircumflex
Encoding: 308 308 244
Width: 472
GlyphClass: 2
Flags: W
HStem: -22 68<117.659 276.693> 676 20G<441.712 538>
AnchorPoint: "topright" 593 430 basechar 0
AnchorPoint: "top" 533 919 basechar 0
AnchorPoint: "below" 202 -63 basechar 0
AnchorPoint: "overlap" 437 385 basechar 0
LayerCount: 2
Fore
SplineSet
593 729 m 1
 519 824 l 1
 405 729 l 1
 334 729 l 1
 497 870 l 1
 559 870 l 1
 661 729 l 1
 593 729 l 1
79 106 m 1
 104 70 140 46 194 46 c 0
 247 46 284 63 304 96 c 0
 318 118 327 138 330 155 c 2
 446 696 l 1
 538 696 l 1
 423 151 l 2
 402 51 327 -22 210 -22 c 0
 153 -22 98 -7 45 22 c 1
 79 106 l 1
EndSplineSet
Position2: "'cpsp' Capital Spacing lookup 0 subtable" dx=7 dy=0 dh=14 dv=0
EndChar

StartChar: jcircumflex
Encoding: 309 309 245
Width: 267
GlyphClass: 2
Flags: W
HStem: -205 71<-61.3068 65.3468> 426 20G<194.773 281> 677 20G<236.348 328.337>
AnchorPoint: "topright" 399 435 basechar 0
AnchorPoint: "top" 290 737 basechar 0
AnchorPoint: "below" 111 -262 basechar 0
AnchorPoint: "overlap" 201 243 basechar 0
LayerCount: 2
Fore
SplineSet
343 519 m 1
 275 638 l 1
 158 519 l 1
 89 519 l 1
 255 697 l 1
 318 697 l 1
 410 519 l 1
 343 519 l 1
175 -57 m 2
 159 -130 99 -205 17 -205 c 0
 -24 -205 -62 -193 -98 -169 c 1
 -60 -100 l 1
 -42 -123 -20 -134 6 -134 c 0
 53 -134 82 -109 91 -65 c 2
 199 446 l 1
 281 446 l 1
 175 -57 l 2
EndSplineSet
EndChar

StartChar: Kcommaaccent
Encoding: 310 310 246
Width: 694
GlyphClass: 2
Flags: W
HStem: -2 21G<95 191.229 545.782 655> 674 20G<238.747 335 664.177 792>
AnchorPoint: "topright" 781 430 basechar 0
AnchorPoint: "top" 497 731 basechar 0
AnchorPoint: "below" 339 -296 basechar 0
AnchorPoint: "overlap" 387 323 basechar 0
LayerCount: 2
Fore
SplineSet
463 417 m 1
 655 -2 l 1
 555 -2 l 1
 390 356 l 1
 235 225 l 1
 187 -2 l 1
 95 -2 l 1
 243 694 l 1
 335 694 l 1
 258 333 l 1
 688 694 l 1
 792 694 l 1
 463 417 l 1
356 -151 m 1
 294 -266 l 1
 249 -266 l 1
 295 -155 l 1
 274 -155 l 1
 291 -73 l 1
 373 -73 l 1
 356 -151 l 1
EndSplineSet
Position2: "'cpsp' Capital Spacing lookup 0 subtable" dx=7 dy=0 dh=14 dv=0
EndChar

StartChar: kcommaaccent
Encoding: 311 311 247
Width: 489
GlyphClass: 2
Flags: W
HStem: -2 21G<83 163.255 375.455 475> 426 20G<425.5 550> 674 20G<225.776 309>
AnchorPoint: "topright" 497 468 basechar 0
AnchorPoint: "bottom" 139 4 basechar 0
AnchorPoint: "top" 276 745 basechar 0
AnchorPoint: "below" 242 -301 basechar 0
AnchorPoint: "overlap" 254 323 basechar 0
AnchorPoint: "hook" 434 12 basechar 0
LayerCount: 2
Fore
SplineSet
343 270 m 1
 475 -2 l 1
 385 -2 l 1
 280 218 l 1
 189 139 l 1
 159 -2 l 1
 83 -2 l 1
 230 694 l 1
 309 694 l 1
 214 246 l 1
 449 446 l 1
 550 446 l 1
 343 270 l 1
253 -151 m 1
 192 -266 l 1
 147 -266 l 1
 192 -155 l 1
 172 -155 l 1
 189 -73 l 1
 270 -73 l 1
 253 -151 l 1
EndSplineSet
EndChar

StartChar: Lacute
Encoding: 313 313 248
Width: 542
GlyphClass: 2
Flags: W
HStem: 0 71<204 499> 676 20G<235.776 336>
AnchorPoint: "topright" 441 430 basechar 0
AnchorPoint: "top" 331 949 basechar 0
AnchorPoint: "below" 326 -22 basechar 0
AnchorPoint: "overlap" 222 359 basechar 0
LayerCount: 2
Fore
SplineSet
342 739 m 1
 239 739 l 1
 450 868 l 1
 575 868 l 1
 342 739 l 1
499 0 m 1
 93 0 l 1
 240 696 l 1
 336 696 l 1
 204 71 l 1
 247 71 l 1
 515 73 l 1
 499 0 l 1
EndSplineSet
Position2: "'cpsp' Capital Spacing lookup 0 subtable" dx=7 dy=0 dh=14 dv=0
EndChar

StartChar: lacute
Encoding: 314 314 249
Width: 239
GlyphClass: 2
Flags: W
HStem: 0 21G<80 166.224> 676 20G<222.776 309>
AnchorPoint: "topright" 437 424 basechar 0
AnchorPoint: "top" 312 937 basechar 0
AnchorPoint: "below" 123 -20 basechar 0
AnchorPoint: "overlap" 204 361 basechar 0
AnchorPoint: "hook" 129 12 basechar 0
LayerCount: 2
Fore
SplineSet
329 739 m 1
 226 739 l 1
 437 868 l 1
 562 868 l 1
 329 739 l 1
162 0 m 1
 80 0 l 1
 227 696 l 1
 309 696 l 1
 162 0 l 1
EndSplineSet
EndChar

