SplineFontDB: 3.2
FontName: NewCM10Devanagari-Bold
FullName: NewComputerModern 10 Bold
FamilyName: NewComputerModern 10 Devanagari
Weight: Bold
Copyright: (C) 2023 Antonis Tsolomitis and Niranjan. This work is released under the GUST Font License --  see http://tug.org/fonts/licenses/GUST-FONT-LICENSE.txt for details.\n
Version: 7.0.1
ItalicAngle: 0
UnderlinePosition: -125
UnderlineWidth: 50
Ascent: 800
Descent: 200
InvalidEm: 0
sfntRevision: 0x00020000
LayerCount: 2
Layer: 0 0 "Back" 1
Layer: 1 0 "Fore" 0
XUID: [1021 970 578947182 3388975]
StyleMap: 0x0040
FSType: 0
OS2Version: 4
OS2_WeightWidthSlopeOnly: 1
OS2_UseTypoMetrics: 0
CreationTime: 1555073790
ModificationTime: 1723226053
PfmFamily: 17
TTFWeight: 400
TTFWidth: 5
LineGap: 0
VLineGap: 0
Panose: 2 2 5 2 6 5 5 2 2 4
OS2TypoAscent: 930
OS2TypoAOffset: 0
OS2TypoDescent: -625
OS2TypoDOffset: 0
OS2TypoLinegap: 0
OS2WinAscent: 930
OS2WinAOffset: 0
OS2WinDescent: 625
OS2WinDOffset: 0
HheadAscent: 930
HheadAOffset: 0
HheadDescent: -625
HheadDOffset: 0
OS2SubXSize: 650
OS2SubYSize: 600
OS2SubXOff: 0
OS2SubYOff: 75
OS2SupXSize: 650
OS2SupYSize: 600
OS2SupXOff: 0
OS2SupYOff: 350
OS2StrikeYSize: 50
OS2StrikeYPos: 374
OS2CapHeight: 715
OS2XHeight: 623
OS2Vendor: 'UKWN'
OS2CodePages: 00000001.00000000
OS2UnicodeRanges: 80008023.00002046.00000000.00000000
Lookup: 1 0 0 "uni0962-3to-uni093C0962-3-02" { "uni0962-3to-uni093C0962-3-02-1"  } []
Lookup: 1 0 0 "uni962-3to-uni093C0962-3-01" { "uni962-3to-uni093C0962-3-01-1"  } []
Lookup: 1 0 0 "uni0962-3to-uni093C0962-3" { "uni0962-3to-uni093C0962-3-1"  } []
Lookup: 1 0 0 "uni0962-3-alts" { "uni0962-3-alts-1"  } []

StartChar: .notdef
Encoding: 1114112 -1 0
Width: 586
Flags: W
HStem: 0 56<129 446> 724 55<129 446>
VStem: 74 55<56 724> 446 55<56 724>
LayerCount: 2
Fore
SplineSet
129 56 m 1
 446 56 l 1
 446 724 l 1
 129 724 l 1
 129 56 l 1
74 0 m 1
 74 779 l 1
 501 779 l 1
 501 0 l 1
 74 0 l 1
EndSplineSet
EndChar

StartChar: uni0905
Encoding: 2309 2309 5
Width: 830
GlyphClass: 2
Flags: W
HStem: 73 50<181.881 291.045> 256 64<443.9 586.505> 350 75<148.431 281.209> 582 98<508.695 627 732 857.988> 629 50<180.023 272.197>
VStem: 313 125<454.506 584.202> 314 135<147.562 267.588> 624 111<-37.6746 0 0.0976524 273 350.408 582>
AnchorPoint: "Anchor-8" 292 -87 basechar 0
AnchorPoint: "Anchor-7" 420 -50 basechar 0
AnchorPoint: "Anchor-6" 711 -50 basechar 0
AnchorPoint: "Anchor-1" 683 680 basechar 0
AnchorPoint: "Anchor-0" 683 680 basechar 0
LayerCount: 2
Fore
SplineSet
443 268 m 1xf5
 447 255 449 232 449 220 c 0
 449 96 309 73 244 73 c 0
 179 73 122 94 79 137 c 0
 31 184 12 229 12 258 c 0
 12 293 65 323 88 323 c 0
 132 323 113 231 141 186 c 4
 162.666819107 151.178326436 205 123 244 123 c 0
 276 123 314 146 314 220 c 4xf3
 314 284 305 334 279 357 c 1
 260 352 243 350 227 350 c 0
 127 350 102 370 102 423 c 0
 102 442 113 450 128 450 c 0
 161 450 184 425 217 425 c 0
 264 425 313 449 313 514 c 0
 313 560 279 629 222 629 c 0
 162 629 140 524 102 524 c 0
 73 524 42 592 42 606 c 0
 42 625 121 679 222 679 c 0xed
 330 679 438 611 438 513 c 0
 438 443 404 400 358 377 c 1
 368 366 379 345 386 335 c 1
 414 325 436 320 469 320 c 0
 528 320 591 334 626 367 c 1
 627 447 627 544 627 582 c 1
 529 582 l 2
 492 582 403 680 484 680 c 2
 830 680 l 2
 841 680 858 668 858 668 c 1
 898 630 l 2
 926 603 901 582 875 582 c 2
 732 582 l 1
 735 -53 l 2
 735 -68 716 -103 685 -73 c 0
 675 -63 624 -27 624 0 c 2
 624 0 625 134 625 273 c 1
 588 259 542 256 526 256 c 0
 510 256 473 260 443 268 c 1xf5
EndSplineSet
EndChar

StartChar: uni0907
Encoding: 2311 2311 7
Width: 541
GlyphClass: 2
Flags: W
HStem: -227 113<271.824 406.251> -16 47<211.616 331.4> 201 58<190.596 350.144> 217 62<239.544 392.14> 430 55<185.482 336> 581 99<-20.3055 338 444 568.988>
VStem: 26 125<297.109 399.072> 54 139<50.3785 134.443> 336 110<485 581> 378 125<78.3808 204.981>
AnchorPoint: "Anchor-8" 104 -97 basechar 0
AnchorPoint: "Anchor-7" 266 -140 basechar 0
AnchorPoint: "Anchor-6" 263 -150 basechar 0
AnchorPoint: "Anchor-1" 389 680 basechar 0
AnchorPoint: "Anchor-0" 389 680 basechar 0
LayerCount: 2
Fore
SplineSet
586 581 m 2xee80
 444 581 l 1
 444 548 446 498 446 430 c 1
 264 430 l 2
 169 430 151 375 151 352 c 0
 151 303 202 259 245 259 c 0xee80
 284 259 318 279 363 279 c 0
 420 279 503 247 503 149 c 0
 503 70 431 -16 300 -16 c 0
 271 -16 215 -13 182 0 c 5
 205 -92 301 -114 380 -114 c 0
 400 -114 419 -151 419 -177 c 0
 419 -216 390 -227 356 -227 c 0
 249 -227 139 -127 118 21 c 1
 93 31 54 54 54 98 c 0
 54 140 92 156 121 156 c 0
 175 156 191 110 193 76 c 1
 207 45 245 31 276 31 c 0
 342 31 378 98 378 149 c 0
 378 188 350 217 340 217 c 0xdd40
 327 217 312 212 300 209 c 0
 281 205 258 201 231 201 c 0
 167 201 26 241 26 352 c 0
 26 420 82 485 196 485 c 2
 336 485 l 1
 337 525 338 561 338 581 c 1
 0 581 l 2
 -37 581 -126 680 -45 680 c 2
 541 680 l 2
 552 680 569 668 569 668 c 1
 609 629 l 2
 637 603 612 581 586 581 c 2xee80
EndSplineSet
EndChar

StartChar: uni0909
Encoding: 2313 2313 9
Width: 524
GlyphClass: 2
Flags: W
HStem: 0 46<200.519 306.649> 308 74<169.431 302.209> 583 97<-20.3055 0 243 293.704 526 553.988>
VStem: 334 125<410.929 525.728> 345 135<92.5321 250.902>
AnchorPoint: "Anchor-8" 311 -115 basechar 0
AnchorPoint: "Anchor-7" 273 14 basechar 0
AnchorPoint: "Anchor-6" 269 0 basechar 0
AnchorPoint: "Anchor-1" 320 680 basechar 0
AnchorPoint: "Anchor-0" 320 680 basechar 0
LayerCount: 2
Fore
SplineSet
480 165 m 0xe8
 480 269.86 389 333 385 337 c 1
 428 361 459 402 459 469 c 0
 459 511.95900825 417 555 378 583 c 1
 571 583 l 2
 596.9921875 583 622 604 594 630 c 2
 554 668 l 1
 554 668 537 680 526 680 c 2
 -45 680 l 2
 -126 680 -37 583 0 583 c 2
 243 583 l 2
 297 583 334 520 334 470 c 0xf0
 334 406 285 382 238 382 c 0
 205 382 182 407 149 407 c 0
 134 407 123 399 123 381 c 0
 123 327 148 308 248 308 c 0
 264 308 281 309 300 314 c 1
 328 290 345 227 345 165 c 0
 345 101 304 46 265 46 c 0
 226 46 183.360679775 71.4589803375 161 105 c 0
 129 153 153 248 109 248 c 0
 86 248 33 218 33 184 c 0
 33 155 52 110 100 63 c 0
 143 21 200 0 265 0 c 0
 359 0 480 54.9821850316 480 165 c 0xe8
-45 680 m 1026
EndSplineSet
EndChar

StartChar: uni090A
Encoding: 2314 2314 10
Width: 734
GlyphClass: 2
Flags: W
HStem: 0 46<200.519 306.649> 11 118<494.209 580.541> 308 74<169.431 302.209> 340 40<496.219 576.211> 583 97<-20.3055 293.704 378 763.988>
VStem: 334 125<410.929 525.728> 345 135<92.5359 259.554> 620 102<104.347 274.091>
AnchorPoint: "Anchor-8" 311 -115 basechar 0
AnchorPoint: "Anchor-7" 377 11 basechar 0
AnchorPoint: "Anchor-6" 366 0 basechar 0
AnchorPoint: "Anchor-1" 318 680 basechar 0
AnchorPoint: "Anchor-0" 318 680 basechar 0
LayerCount: 2
Fore
SplineSet
599 70 m 5x5d
 621 75 620 172 620 202 c 4
 620 281 579 340 532 340 c 4x5d
 499 340 465 288 461 241 c 5
 473 218 480 188 480 165 c 4
 480 55 359 0 265 0 c 4
 200 0 143 21 100 63 c 4
 52 110 33 155 33 184 c 4
 33 218 86 248 109 248 c 4
 153 248 129 153 161 105 c 4
 183.360679775 71.4589803375 226 46 265 46 c 4
 304 46 345 101 345 165 c 4
 345 227 328 290 300 314 c 5
 281 309 264 308 248 308 c 4
 148 308 123 327 123 381 c 4
 123 399 134 407 149 407 c 4
 182 407 205 382 238 382 c 4xab
 285 382 334 406 334 470 c 4
 334 520 297 583 243 583 c 6
 0 583 l 6
 -37 583 -126 680 -45 680 c 6
 736 680 l 6
 747 680 764 668 764 668 c 5
 804 630 l 6
 832 604 806.992518598 583 781 583 c 6
 378 583 l 5
 417 555 459 511.95900825 459 469 c 4
 459 402 428 361 385 337 c 5
 389 333 406 315 411 311 c 5
 428 335 469 380 532 380 c 4
 625 380 722 293 722 195 c 4
 722 70 620 11 550 11 c 4
 511 11 479 34 479 71 c 4
 479 106 512 129 538 129 c 4
 565 129 591 106 599 70 c 5x5d
-45 680 m 1026
EndSplineSet
EndChar

StartChar: uni090B
Encoding: 2315 2315 11
Width: 863
GlyphClass: 2
Flags: W
HStem: 94 71<602.818 696.179> 303 45<517 642.793> 438 57<212.79 298.134> 582 98<-20.3055 410 515 890.988>
VStem: 409 108<-39.3274 272 396 582> 591 143<400.522 463.359> 723 107<189.878 319.506>
AnchorPoint: "Anchor-8" 285 -74 basechar 0
AnchorPoint: "Anchor-7" 440 -53 basechar 0
AnchorPoint: "Anchor-6" 496 -53 basechar 0
AnchorPoint: "Anchor-1" 465 680 basechar 0
AnchorPoint: "Anchor-0" 465 680 basechar 0
LayerCount: 2
Fore
SplineSet
908 582 m 2xfa
 515 582 l 1
 516 348 l 5
 522 348 526 348 530 348 c 4
 592 348 648 366 659 380 c 1
 623 385 591 414 591 435 c 0
 591 470 633 496 664 496 c 0
 708 496 730 438 734 394 c 1xfc
 780 364 830 311 830 249 c 0
 830 103 660 94 650 94 c 0
 637 94 587 115 587 142 c 0
 587 151 593 165 610 165 c 0
 669 165 723 179 723 247 c 0
 723 270 713 319 700 340 c 1
 665 315 606 303 553 303 c 0
 541 303 529 304 517 305 c 1
 518 -53 l 2
 518 -68 499 -103 468 -73 c 0
 458 -64 407 -27 407 0 c 2
 409 272 l 1
 330 229 271 169 205 111 c 0
 196 103 188 101 184 101 c 0
 140 101 102 135 102 174 c 0
 102 176 264 269 408 327 c 1
 292 422 l 2
 278.501953125 432.322265625 268 438 251 438 c 0
 199 438 201 363 160 363 c 0
 123 363 46 395 46 415 c 0
 46 442 182 495 237 495 c 0
 312 495 358 439 409 396 c 1
 410 582 l 1
 0 582 l 2
 -37 582 -126 680 -45 680 c 2
 863 680 l 2
 874 680 891 668 891 668 c 1
 931 630 l 2
 959 603 934 582 908 582 c 2xfa
EndSplineSet
EndChar

StartChar: uni0960
Encoding: 2400 2400 12
Width: 864
GlyphClass: 2
Flags: W
HStem: -50 50<714.287 805.226> 305 43<514 628.766> 439 56<220.39 302.624> 582 98<-40.967 410 514 891.988>
VStem: 409 105<-42.677 270 400 582> 594 98<22.5456 136.35> 651.124 133.876<398.66 490.315>
AnchorPoint: "Anchor-8" 284 -79 basechar 0
AnchorPoint: "Anchor-7" 467 -128 basechar 0
AnchorPoint: "Anchor-6" 489 -47 basechar 0
AnchorPoint: "Anchor-1" 464 680 basechar 0
AnchorPoint: "Anchor-0" 464 680 basechar 0
LayerCount: 2
Fore
SplineSet
651.123816132 439.254012454 m 0xfa
 651.123816132 485.553820002 691.794916275 512 720 512 c 0
 759 512 785 480 785 444 c 0xfa
 785 419 769 393 753 382 c 1
 799 355 840 319 840 264 c 0
 840 191 692 165 692 92 c 0
 692 47 715 0 754 0 c 4
 843 0 801 92 853 92 c 0
 884 92 929 61 929 36 c 0
 929 11 871 -50 754 -50 c 0
 656 -50 594 18 594 84 c 0xfc
 594 204 716 200 741 273 c 0
 748.127845447 293.813308706 739 336 711 355 c 1
 678 329 608 305 553 305 c 0
 540 305 528 305 514 306 c 1
 517 -53 l 2
 517 -62 507.4375 -81.6875 489.15625 -81.6875 c 0
 468.518499522 -81.6875 406 -30.6895580674 406 0 c 2
 409 270 l 1
 333 230 274 169 212 112 c 0
 203 104 195 101 191 101 c 0
 147 101 109 137 109 175 c 0
 109 176 264 275 408 334 c 1
 349 384 l 2
 336 395 277 439 260 439 c 0
 209 439 205 363 167 363 c 0
 130 363 53 395 53 415 c 0
 53 442 189 495 244 495 c 0
 319 495 359 444 409 400 c 1
 410 482 410 551 410 582 c 1
 0 582 l 2
 -26.0815389825 582 -78.001519993 630.69552536 -78.001519993 659.43499538 c 0
 -78.001519993 671.466140601 -68.902576822 680 -45 680 c 2
 864 680 l 2
 875 680 892 668 892 668 c 1
 932 630 l 2
 940.732150907 621.579711625 944.309615141 613.742972685 944.309615141 606.944751191 c 0
 944.309615141 591.944196661 926.891574158 582 909 582 c 2
 514 582 l 1
 513 553 513 494 513 422 c 2
 513 348 l 1
 530 348 l 2
 607 348 647 375 662 398 c 1
 654.832262086 412.167737914 651.123816132 420.998810227 651.123816132 439.254012454 c 0xfa
EndSplineSet
EndChar

StartChar: uni090C
Encoding: 2316 2316 13
Width: 863
GlyphClass: 2
Flags: W
HStem: -78 54<623.435 723.379> 414 59<191.095 292.048> 414 48<480 492 603 620.067> 582 98<-20.3055 495 600 890.988>
VStem: 44 125<208.744 386.539> 336 99<201.215 335.217> 481 115<6.41828 106.579> 492 111<458.087 582> 658 125<245.776 378.809>
AnchorPoint: "Anchor-8" 262 -148 basechar 0
AnchorPoint: "Anchor-7" 360 -102 basechar 0
AnchorPoint: "Anchor-6" 615 -130 basechar 0
AnchorPoint: "Anchor-1" 554 680 basechar 0
AnchorPoint: "Anchor-0" 554 680 basechar 0
LayerCount: 2
Fore
SplineSet
492 462 m 1xbd80
 495 582 l 1
 0 582 l 2
 -37 582 -126 680 -45 680 c 2
 863 680 l 2
 874 680 891 668 891 668 c 1
 931 630 l 2
 959 603 934 582 908 582 c 2
 600 582 l 1
 603 460 l 1xbd80
 673 452 783 409 783 320 c 0
 783 238 719 200 664 153 c 0
 641 133 596 94 596 62 c 4
 596 7 634 -24 684 -24 c 0
 723 -24 739 26 757 43 c 1
 797 42 827 6 827 -31 c 0
 827 -33 799 -78 706 -78 c 0
 639 -78 481 -31 481 61 c 0
 481 123 574 176 617 217 c 0
 646 246 658 286 658 323 c 0
 658 361 628 414 550 414 c 0xbe80
 480 414 435 315 435 270 c 0
 435 243 444 226 456 203 c 0
 458 198 461 191 461 185 c 0
 461 169 448 160 434 160 c 0
 373 160 336 178 336 280 c 0
 336 295 338 311 343 330 c 1
 335 377 266 414 226 414 c 0
 186 414 169 351 169 306 c 0
 169 245 177 187 243 128 c 0
 269 104 294 83 322 62 c 0
 333 54 337 45 337 39 c 0
 337 6 313 -3 298 -3 c 0
 270 -3 44 123 44 306 c 0
 44 413 138 473 217 473 c 0xde80
 262 473 319 450 376 392 c 1
 403 429 448 457 492 462 c 1xbd80
EndSplineSet
EndChar

StartChar: uni0961
Encoding: 2401 2401 14
Width: 863
GlyphClass: 2
Flags: W
HStem: -258 57<666.555 757.203> -75 65<650.062 766.022> 412 59<193.213 289.055> 412 48<480 492 603 620.067> 581 99<-20.3055 495 600 890.988>
VStem: 44 125<203.834 382.823> 336 99<202.276 336.112> 481 115<14.0608 101.753> 492 111<456.021 581> 542 103<-179.829 -71.3883> 658 125<242.014 376.031>
AnchorPoint: "Anchor-8" 262 -148 basechar 0
AnchorPoint: "Anchor-7" 360 -102 basechar 0
AnchorPoint: "Anchor-1" 551 680 basechar 0
AnchorPoint: "Anchor-0" 551 680 basechar 0
LayerCount: 2
Fore
SplineSet
435 266 m 4xdf20
 435 232.14266322 461 212.192948304 461 180 c 0
 461 164 448 155 434 155 c 0
 373 155 336 173 336 276 c 0
 336 291 338 308 343 326 c 5
 332 361 281 412 226 412 c 4
 187 412 169 348 169 302 c 0
 169 241 178 178 239 111 c 4
 262.369626956 85.3317212121 290 66 318 45 c 4
 329 37 333 28 333 22 c 4
 333 -7 313 -10 298 -10 c 0
 270 -10 44 118 44 302 c 0
 44 410 138 471 217 471 c 0xef20
 262 471 319 448 376 389 c 1
 403 427 448 455 492 460 c 1
 495 581 l 1
 0 581 l 2
 -37 581 -126 680 -45 680 c 2
 863 680 l 2
 874 680 891 668 891 668 c 1
 931 629 l 2
 959 603 934 581 908 581 c 2
 600 581 l 1
 603 457 l 1xdea0
 673 450 783 407 783 316 c 0
 783 234 719 196 664 148 c 0
 641 128 596 89 596 56 c 0xdf20
 596 23 634 -10 684 -10 c 0
 712 -10 724 9 742 26 c 1
 782 25 807 -10 807 -48 c 0
 807 -50 799 -75 706 -75 c 0
 696 -75 672 -75 652 -71 c 1
 648 -80 645 -101 645 -110 c 0
 645 -156 665 -201 715 -201 c 0
 750 -201 760 -176 774 -153 c 1
 811 -162 838 -187 838 -211 c 0
 838 -212 791 -258 707 -258 c 4
 647 -258 542 -230 542 -137 c 0xde60
 542 -103 556 -78 574 -59 c 1
 524 -38 481 -2 481 55 c 0
 481 117 574 150 617 192 c 0
 646 221 658 283 658 319 c 0
 658 358 628 412 550 412 c 0
 480 412 435 332 435 266 c 4xdf20
EndSplineSet
EndChar

StartChar: uni090F
Encoding: 2319 2319 15
Width: 529
GlyphClass: 2
Flags: W
HStem: -151 76<415.137 465.991> 239 73<274.265 321.63> 582 98<-20.3055 60 164 328 432 557.988>
VStem: 57 110<261.621 582> 325 111<322.734 582> 475 101<-59.4655 -9.40329>
AnchorPoint: "Anchor-8" 253 -49 basechar 0
AnchorPoint: "Anchor-7" 311 -158 basechar 0
AnchorPoint: "Anchor-6" 414 -169 basechar 0
AnchorPoint: "Anchor-1" 388 680 basechar 0
AnchorPoint: "Anchor-0" 388 680 basechar 0
LayerCount: 2
Fore
SplineSet
575 582 m 6
 432 582 l 5
 436 345 l 6
 437 273 361 239 337 239 c 4
 311 239 259 253 259 293 c 4
 259 299 263 308 276 312 c 4
 295 318 325 322 325 346 c 6
 328 582 l 5
 164 582 l 5
 167 326 l 6
 169 139 576 83 576 -44 c 4
 576 -107 501 -151 477 -151 c 4
 449 -151 399 -134 399 -96 c 4
 399 -86 404 -76 420 -75 c 6
 422 -75 l 5
 434 -63 475 -63 475 -35 c 4
 475 -18 445 -4 416 13 c 4
 299 80 55 176 57 327 c 6
 60 582 l 5
 0 582 l 6
 -37 582 -126 680 -45 680 c 6
 530 680 l 6
 541 680 558 668 558 668 c 5
 598 630 l 6
 626 603 601 582 575 582 c 6
EndSplineSet
EndChar

StartChar: uni093E
Encoding: 2366 2366 30
Width: 301
GlyphClass: 2
Flags: W
HStem: 582 98<-20.3055 98 203 328.988>
VStem: 95 111<-37.0418 582>
AnchorPoint: "Anchor-7" -25 -65 basechar 0
AnchorPoint: "Anchor-6" 184 -58 basechar 0
AnchorPoint: "Anchor-1" 156 680 basechar 0
AnchorPoint: "Anchor-0" 156 680 basechar 0
LayerCount: 2
Fore
SplineSet
346 582 m 6
 203 582 l 5
 206 -53 l 6
 206 -65 189 -96 157 -74 c 4
 148 -65 95 -27 95 0 c 6
 98 582 l 5
 0 582 l 6
 -37 582 -126 680 -45 680 c 6
 301 680 l 6
 312 680 329 668 329 668 c 5
 369 630 l 6
 397 603 372 582 346 582 c 6
EndSplineSet
EndChar

StartChar: uni0940
Encoding: 2368 2368 32
Width: 279
Flags: W
HStem: 581 99<-20.3055 92 197 306.988> 927 50<-135.534 -36.3521>
VStem: -294 125<728.441 884.668> 89 111<-36.8486 581> 95 90<680 741.26>
AnchorPoint: "Anchor-0" 145 669 basechar 0
LayerCount: 2
Fore
SplineSet
324 581 m 2xe8
 197 581 l 1
 200 -53 l 2
 200 -65 183 -96 151 -74 c 0
 142 -65 89 -27 89 1 c 2xf0
 92 581 l 1
 0 581 l 2
 -37 581 -126 680 -45 680 c 2
 95 680 l 1
 69 770 -3 927 -89 927 c 0
 -143 927 -169 863 -169 803 c 0
 -169 761 -150 709 -98 640 c 1
 -186 640 l 1
 -194 644 -294 709 -294 803 c 0
 -294 912 -200 977 -89 977 c 0
 77 977 150 806 185 680 c 1
 279 680 l 2
 290 680 307 668 307 668 c 1
 347 629 l 2
 375 602 350 581 324 581 c 2xe8
EndSplineSet
Substitution2: "EEfix3-1" uni0940.03
Substitution2: "EEfix2-1" uni0940.02
Substitution2: "Single Substitution lookup 854 subtable" uni0940.03
Substitution2: "Single Substitution lookup 852 subtable" uni0940.02
Substitution2: "Single Substitution lookup 850 subtable" uni0940.01
EndChar

StartChar: uni0941
Encoding: 2369 2369 33
Width: 0
GlyphClass: 4
Flags: W
HStem: -288 67<-247.617 -101.422> -62 100<-170.549 -53.2184>
VStem: -46 108<-161.202 -71.1218>
AnchorPoint: "Anchor-12" -97 97 mark 0
AnchorPoint: "Anchor-9" -141 -328 basemark 0
AnchorPoint: "Anchor-9" -97 97 mark 0
AnchorPoint: "Anchor-6" -119 0 mark 0
LayerCount: 2
Fore
SplineSet
-144 -288 m 0
 -246 -288 -356 -234 -515 -112 c 0
 -521 -107 -526 -91 -526 -71 c 0
 -526 -50 -512 -32 -497 -32 c 0
 -466 -32 -299 -221 -160 -221 c 4
 -77 -221 -46 -121 -46 -100 c 0
 -46 -75 -77 -62 -109 -62 c 0
 -175 -62 -198 -122 -236 -122 c 0
 -253 -122 -313 -97 -313 -67 c 0
 -313 -21 -220 38 -138 38 c 0
 -65 38 62 -9 62 -143 c 0
 62 -225 -34 -288 -144 -288 c 0
EndSplineSet
Substitution2: "uni0941-201-1" uni0941.01
Substitution2: "uni0941-2lowlow-1" uni0941.lowlow
Substitution2: "uni094Xlow-1" uni0941.low
Substitution2: "Single Substitution lookup 831 subtable" uni0941.short
Substitution2: "Single Substitution lookup 830 subtable" uni0941.01
Substitution2: "Single Substitution lookup 232 subtable" uni093C0941.01
Substitution2: "Single Substitution lookup 229 subtable" uni093C0941
EndChar

StartChar: uni0942
Encoding: 2370 2370 34
Width: 0
GlyphClass: 4
Flags: W
HStem: -304 107<-245.352 -112.14> -49 73<-201.701 -75.9089>
VStem: -356 98<-180.902 -108.247>
AnchorPoint: "Anchor-12" -91 63 mark 0
AnchorPoint: "Anchor-9" -91 63 mark 0
AnchorPoint: "Anchor-6" -136 -10 mark 0
LayerCount: 2
Fore
SplineSet
162 -310 m 0
 149 -307 125 -274 116 -264 c 0
 61 -196 -46 -49 -144 -49 c 4
 -211 -49 -258 -131 -258 -153 c 0
 -258 -174 -224 -197 -183 -197 c 0
 -136 -197 -104 -164 -74 -164 c 0
 -48 -164 -5 -205 -5 -229 c 0
 -5 -268 -90 -304 -161 -304 c 0
 -257 -304 -356 -232 -356 -130 c 0
 -356 15 -204 24 -172 24 c 0
 -41 24 66 -63 202 -235 c 1
 206 -246 l 1
 206 -245 206 -244 206 -243 c 1
 206 -245 207 -247 207 -253 c 2
 207 -253 184 -314 162 -310 c 0
EndSplineSet
Substitution2: "uni0941-2lowlow-1" uni0942.lowlow
Substitution2: "uni0941-201-1" uni0942.01
Substitution2: "uni094Xlow-1" uni0942.low
Substitution2: "Single Substitution lookup 831 subtable" uni0942.short
Substitution2: "Single Substitution lookup 233 subtable" uni093C0942.01
Substitution2: "Single Substitution lookup 230 subtable" uni093C0942
EndChar

StartChar: uni0943
Encoding: 2371 2371 35
Width: 0
GlyphClass: 4
Flags: W
HStem: -309 57<-223.854 -123.915> -65 97<-235.876 -72>
VStem: -346 88<-205.066 -86.8551>
AnchorPoint: "Anchor-12" -87 0 mark 0
AnchorPoint: "Anchor-9" -87 0 mark 0
AnchorPoint: "Anchor-6" -100 -2 mark 0
LayerCount: 2
Fore
SplineSet
-132 -309 m 0
 -235 -309 -346 -239 -346 -123 c 0
 -346 -82 -313 32 -181 32 c 2
 -72 32 l 1
 -72 -65 l 1
 -184 -65 l 2
 -238 -65 -258 -111 -258 -140 c 0
 -258 -207 -224 -252 -170 -252 c 0
 -132 -252 -92 -198 -68 -176 c 5
 -22 -178 14 -215 14 -257 c 0
 14 -279 -45 -309 -132 -309 c 0
EndSplineSet
Substitution2: "uni0943-4lowlow-1" uni0943.lowlow
Substitution2: "uni0943-4low-1" uni0943.low
Substitution2: "Single Substitution lookup 791 subtable" uni0930094D
Substitution2: "Single Substitution lookup 240 subtable" uni094D09300943
Substitution2: "Single Substitution lookup 234 subtable" uni093C0943
EndChar

StartChar: uni0944
Encoding: 2372 2372 36
Width: 0
GlyphClass: 4
Flags: W
HStem: -372 86<-182.48 -21.8173> -207 72<-194.307 -89.7014> -34 99<-210.544 -72>
VStem: -341 107<-125.123 -56.5413> -305 107<-270.027 -191.375>
AnchorPoint: "Anchor-12" -100 25 mark 0
AnchorPoint: "Anchor-9" -100 25 mark 0
AnchorPoint: "Anchor-6" -100 25 mark 0
LayerCount: 2
Fore
SplineSet
-97 -372 m 0xe8
 -161 -372 -305 -340 -305 -220 c 0xe8
 -305 -195 -297 -176 -286 -161 c 1
 -312 -144 -341 -115 -341 -72 c 0
 -341 38 -206 65 -72 65 c 1
 -72 -34 l 1
 -210 -34 -234 -66 -234 -83 c 0xf0
 -234 -106 -220 -135 -176 -135 c 0
 -149 -135 -126 -117 -112 -117 c 0
 -73 -117 -64 -160 -64 -174 c 0
 -64 -195 -86 -207 -132 -207 c 0
 -148 -207 -169 -201 -192 -191 c 1
 -197 -198 -198 -217 -198 -233 c 0
 -198 -256 -168 -286 -131 -286 c 0
 -103 -286 -89 -284 -65 -274 c 0
 -61 -272 -54 -269 -46 -269 c 0
 -22 -269 22 -301 22 -323 c 0
 22 -336 2 -372 -97 -372 c 0xe8
EndSplineSet
Substitution2: "uni0943-4lowlow-1" uni0944.lowlow
Substitution2: "uni0943-4low-1" uni0944.low
Substitution2: "Single Substitution lookup 791 subtable" uni0930094D
Substitution2: "Single Substitution lookup 241 subtable" uni094D09300944
Substitution2: "Single Substitution lookup 235 subtable" uni093C0944
EndChar

StartChar: uni0962
Encoding: 2402 2402 37
Width: 0
GlyphClass: 4
Flags: W
HStem: -344 48<41.1219 110.59> -23 47<-222.325 -140.105 -32.1688 42.1299>
VStem: -338 106<-155.864 -27.5019> -137 89<-134.11 -52.6845> -56 86.668<-287.167 -211.505> 70.6112 87.3888<-142.289 -53.2231>
AnchorPoint: "Anchor-12" -67 -30 mark 0
AnchorPoint: "Anchor-9" -67 -30 mark 0
AnchorPoint: "Anchor-6" -67 -30 mark 0
LayerCount: 2
Fore
SplineSet
158 -111 m 0xf4
 158 -190.106044567 30.668041803 -189.101514585 30.668041803 -243.847076038 c 0
 30.668041803 -266.170621101 48.0835023502 -296 74 -296 c 0
 93 -296 120 -267 138 -247 c 1
 174 -250 193 -278 193 -306 c 0
 193 -314 140 -344 74 -344 c 0
 21 -344 -56 -332 -56 -254 c 0xec
 -56 -177.896951533 70.6111571877 -164.417105526 70.6111571877 -103.103399046 c 0
 70.6111571877 -70.7350541479 31.7128940197 -23 9 -23 c 0
 -24 -23 -48 -59 -48 -83 c 0
 -48 -96 -31 -109 -31 -123 c 0
 -31 -148 -53 -154 -73 -154 c 8
 -101.02 -154 -137 -144 -137 -119 c 0
 -137 -100 -124 -82 -118 -66 c 1
 -138 -47 -158 -21 -194 -21 c 0
 -219 -21 -232 -60 -232 -95 c 0
 -232 -172 -180 -227 -121 -267 c 0
 -111 -274 -108 -284 -108 -290 c 0
 -108 -306 -112 -315 -128 -315 c 0
 -167 -315 -338 -182 -338 -95 c 0
 -338 -19 -272 29 -203 29 c 0
 -168 29 -131 15 -90 -15 c 1
 -65 8 -34 24 11 24 c 0
 97 24 158 -40 158 -111 c 0xf4
EndSplineSet
Substitution2: "uni0962-3to-uni093C0962-3-1" uni093C0962
Substitution2: "uni0962-3to-uni093C0962-3-02-1" uni093C0963.02
Substitution2: "uni962-3to-uni093C0962-3-01-1" uni093C0962.01
Substitution2: "uni0962-3-002-1" uni0962.002
Substitution2: "uni0962-3-001-1" uni0962.001
Substitution2: "uni0962-3-02-1" uni0962.02
Substitution2: "uni0962-3-01-1" uni0962.01
Substitution2: "Single Substitution lookup 242 subtable" uni094D09300962
Substitution2: "Single Substitution lookup 236 subtable" uni093C0962
EndChar

StartChar: uni0963
Encoding: 2403 2403 38
Width: 0
GlyphClass: 4
Flags: W
HStem: -431 45<47.3616 122.467> -298 49<49.0704 145.459> -25 48<-222.325 -146.922 -32.6373 48.8066>
VStem: -338 106<-156.119 -30.2445> -127 79<-138.777 -57.1882> -47 86<-382.101 -292.744> 79 79<-127.042 -55.8691>
AnchorPoint: "Anchor-6" -67 -30 mark 0
AnchorPoint: "Anchor-9" -67 -30 mark 0
AnchorPoint: "Anchor-12" -67 -30 mark 0
LayerCount: 2
Fore
SplineSet
-8 -269 m 1
 -23 -259 -55 -236.997520702 -55 -212 c 0
 -55 -140.99 79 -143 79 -105 c 0
 79 -69 35 -25 9 -25 c 0
 -24 -25 -48 -60 -48 -85 c 0
 -48 -99 -31 -112 -31 -126 c 0
 -31 -151 -51.9762039584 -158 -73 -158 c 0
 -102 -158 -127 -148 -127 -122 c 0
 -127 -102 -124 -84 -118 -68 c 1
 -138 -54 -174 -23 -194 -23 c 0
 -219 -23 -232 -61 -232 -97 c 0
 -232 -175 -154 -228 -95 -268 c 4
 -85 -275 -82 -285 -82 -292 c 4
 -82 -308 -84 -318 -110 -318 c 0
 -149 -318 -338 -186 -338 -97 c 0
 -338 -20 -272 29 -203 29 c 0
 -168 29 -131 15 -90 -15 c 1
 -65 7 -34 23 11 23 c 0
 97 23 158 -41 158 -114 c 0
 158 -183 46 -198 39 -223 c 0
 33.8770314151 -241.296316375 49 -249 72 -249 c 0
 91 -249 115 -232 133 -232 c 0
 141 -232 159 -241 159 -278 c 0
 159 -297 139 -298 100 -298 c 0
 88 -298 73 -296 57 -292 c 1
 47 -298 39 -317 39 -330 c 0
 39 -350 49 -386 72 -386 c 0
 108 -386 124 -366 140 -341 c 1
 174 -343 190 -361 190 -392 c 0
 190 -401 159 -431 90 -431 c 0
 42 -431 -47 -409 -47 -346 c 0
 -47 -320 -27 -287 -8 -269 c 1
EndSplineSet
Substitution2: "uni0962-3to-uni093C0962-3-1" uni093C0963
Substitution2: "uni0962-3to-uni093C0962-3-02-1" uni093C0963.02
Substitution2: "uni962-3to-uni093C0962-3-01-1" uni093C0963.01
Substitution2: "uni0962-3-002-1" uni0963.002
Substitution2: "uni0962-3-001-1" uni0963.001
Substitution2: "uni0962-3-02-1" uni0963.02
Substitution2: "uni0962-3-01-1" uni0963.01
Substitution2: "Single Substitution lookup 243 subtable" uni094D09300963
Substitution2: "Single Substitution lookup 237 subtable" uni093C0963
EndChar

StartChar: uni0947
Encoding: 2375 2375 39
Width: 0
GlyphClass: 4
Flags: W
AnchorPoint: "Anchor-13" -36 680 mark 0
AnchorPoint: "Anchor-4" -36 680 mark 0
AnchorPoint: "Anchor-0" -36 680 mark 0
LayerCount: 2
Fore
SplineSet
-62 664 m 5
 -183 883 l 6
 -209 931 -257 902 -289 926 c 4
 -318 947 -369 993 -369 1012 c 4
 -369 1028 -355 1032 -342 1032 c 4
 -236 1032 -170 1026 -121 933 c 6
 23 664 l 5
 -62 664 l 5
EndSplineSet
Substitution2: "Single Substitution lookup 208 subtable" uni0947.alt
EndChar

StartChar: uni0947.alt
Encoding: 1114114 -1 40
Width: 0
GlyphClass: 4
Flags: W
HStem: 664 309
AnchorPoint: "Anchor-13" 0 680 mark 0
AnchorPoint: "Anchor-4" 0 680 mark 0
AnchorPoint: "Anchor-0" 0 680 mark 0
LayerCount: 2
Fore
SplineSet
-63 664 m 1
 -150 827 l 2
 -175 874 -224 846 -256 869 c 0
 -285 889 -336 934 -336 953 c 0
 -336 965 -328 973 -309 973 c 0
 -203 973 -135 968 -88 876 c 2
 22 664 l 1
 -63 664 l 1
EndSplineSet
EndChar

StartChar: uni0948
Encoding: 2376 2376 41
Width: 0
GlyphClass: 4
Flags: W
AnchorPoint: "Anchor-13" -13 674 mark 0
AnchorPoint: "Anchor-4" -13 674 mark 0
AnchorPoint: "Anchor-0" -13 674 mark 0
LayerCount: 2
Fore
SplineSet
-42 664 m 1
 -162 883 l 2
 -188 931 -233 902 -267 926 c 0
 -297 947 -347 993 -347 1012 c 0
 -347 1028 -333 1032 -320 1032 c 0
 -215 1032 -149 1026 -100 933 c 2
 43 664 l 1
 -42 664 l 1
-391 877 m 0
 -391 882.51915 -386.51915 887 -381 887 c 2
 -379 887 l 2
 -377.816824187 887 -376.64063587 887.00009423 -375.471260431 887.00009423 c 0
 -273.843970911 887.00009423 -224.180298146 884.828089558 -148.978346195 783.969001666 c 2
 -63.9783190541 669.968965951 l 2
 -62.7357979917 668.302525938 -62 666.236512314 -62 664 c 0
 -62 658.48085 -66.48085 654 -72 654 c 2
 -107 654 l 2
 -110.096952936 654 -112.86698122 655.410864227 -114.701855352 657.624363179 c 2
 -177.791905827 733.732995498 l 2
 -233.283947884 802.619668396 -281.812965149 765.345822297 -317.039149111 786.361817699 c 0
 -355.228892404 808.229331269 -380.624012731 851.792739731 -390.124304316 872.904499606 c 0
 -390.686906646 874.154727007 -391 875.541088597 -391 877 c 0
EndSplineSet
EndChar

StartChar: uni0945
Encoding: 2373 2373 44
Width: 0
GlyphClass: 4
Flags: W
HStem: 749 62<-109.424 66.2679>
AnchorPoint: "Anchor-14" 0 680 mark 0
AnchorPoint: "Anchor-5" -10 872 basemark 0
AnchorPoint: "Anchor-3" 0 680 mark 0
AnchorPoint: "Anchor-1" 0 680 mark 0
LayerCount: 2
Fore
SplineSet
1 749 m 0
 -158 749 -269 856 -269 892 c 0
 -269 902 -259 918 -233 918 c 0
 -220 918 -211 912 -203 905 c 2
 -197 899 l 1
 -146 855 -104 811 -21 811 c 4
 107 811 140 922 177 922 c 0
 202 922 269 881 269 858 c 0
 269 819 125 749 1 749 c 0
EndSplineSet
EndChar

StartChar: uni0946
Encoding: 2374 2374 46
Width: 0
GlyphClass: 4
Flags: W
VStem: -460 108<874.648 967.334> -93 107<659.624 764.241>
AnchorPoint: "Anchor-13" -40 680 mark 0
AnchorPoint: "Anchor-4" -40 680 mark 0
AnchorPoint: "Anchor-0" -40 680 mark 0
LayerCount: 2
Fore
SplineSet
-16 652 m 4
 -38 645 -109 624 -109 663 c 4
 -109 685 -93 705 -93 728 c 4
 -93 740 -98 770 -137 770 c 4
 -242 770 -460 793 -460 933 c 4
 -460 960 -444 1003 -424 1003 c 4
 -390 1003 -328 969 -328 958 c 4
 -328 935 -352 917 -352 904 c 4
 -352 864 -299 867 -231 861 c 4
 -115 851 14 824 14 679 c 4
 14 670 4 658 -16 652 c 4
EndSplineSet
EndChar

StartChar: uni0956
Encoding: 2390 2390 48
Width: 0
GlyphClass: 4
Flags: W
HStem: -221 62<-437.424 -262.556>
AnchorPoint: "Anchor-15" -329 0 mark 0
AnchorPoint: "Anchor-10" -329 0 mark 0
AnchorPoint: "Anchor-7" -329 0 mark 0
LayerCount: 2
Fore
SplineSet
-327 -221 m 0
 -486 -221 -597 -114 -597 -78 c 0
 -597 -68 -587 -52 -561 -52 c 0
 -544.36493122 -52 -534.084173741 -61.915826259 -525 -71 c 0
 -474 -115 -432 -159 -349 -159 c 0
 -221 -159 -175 -44 -138 -44 c 4
 -113 -44 -59 -89 -59 -112 c 0
 -59 -151 -203 -221 -327 -221 c 0
EndSplineSet
EndChar

StartChar: uni0957
Encoding: 2391 2391 49
Width: 0
GlyphClass: 4
Flags: W
HStem: -392.164 68.1638<-424.592 -252.822> -231 67<-438.264 -263.357>
AnchorPoint: "Anchor-15" -329 0 mark 0
AnchorPoint: "Anchor-10" -329 0 mark 0
AnchorPoint: "Anchor-7" -329 0 mark 0
LayerCount: 2
Fore
SplineSet
-296.654711631 -392.163751283 m 0
 -457.112921765 -392.163751283 -597 -284.499786095 -597 -240 c 0
 -597 -228 -585 -212 -561 -212 c 0
 -529 -212 -482 -324 -349 -324 c 0
 -219 -324 -167 -228 -131 -228 c 0
 -107 -228 -59 -281 -59 -306 c 0
 -59 -344.576720235 -181.648220214 -392.163751283 -296.654711631 -392.163751283 c 0
-327 -231 m 0
 -485 -231 -597 -120 -597 -80 c 0
 -597 -68 -585 -52 -561 -52 c 0
 -519 -52 -482 -164 -349 -164 c 0
 -219 -164 -187 -48 -151 -48 c 0
 -127 -48 -59 -91 -59 -116 c 0
 -59 -158 -204 -231 -327 -231 c 0
EndSplineSet
EndChar

StartChar: uni093A
Encoding: 2362 2362 50
Width: 0
GlyphClass: 4
Flags: W
VStem: -183 111<657.608 960.392>
AnchorPoint: "Anchor-13" -92 680 mark 0
AnchorPoint: "Anchor-4" 40 713 basemark 0
AnchorPoint: "Anchor-4" -92 680 mark 0
AnchorPoint: "Anchor-3" 118 714 basemark 0
AnchorPoint: "Anchor-0" -92 680 mark 0
LayerCount: 2
Fore
SplineSet
-121 623 m 4
 -130 631 -183 667 -183 693 c 6
 -183 976 l 6
 -183 987 -166 1016 -134 995 c 4
 -125 987 -72 951 -72 925 c 6
 -72 642 l 6
 -72 631 -89 602 -121 623 c 4
EndSplineSet
EndChar

StartChar: uni094F
Encoding: 2383 2383 52
Width: 300
GlyphClass: 2
Flags: W
HStem: 582 98<-20.3055 32.2294 266 327.988>
VStem: -322 97<865.529 967.639> 34 91<680.477 749.851> 94 111<-36.4255 582>
AnchorPoint: "Anchor-1" 338 718 basechar 0
AnchorPoint: "Anchor-0" 283 677 basechar 0
LayerCount: 2
Fore
SplineSet
345 582 m 6xe0
 202 582 l 5
 205 -53 l 2
 205 -65 188 -96 156 -74 c 0
 147 -65 94 -26 94 1 c 2xd0
 97 582 l 5
 0 582 l 6
 -37 582 -126 680 -45 680 c 2
 28 680 l 1
 31 690 34 711 34 723 c 0
 34 731 34 770 -13 770 c 0
 -117 771 -322 785 -322 931 c 0
 -322 959 -306 1005 -286 1005 c 0
 -252 1005 -201 965 -201 955 c 0
 -201 933 -225 913 -225 901 c 0
 -225 834 -75 836 -23 828 c 0
 60 817 115 772 125 680 c 1
 170 680 l 1
 174 684 l 2
 182 695 186 717 190 731 c 0
 195 754 189 767 160 777 c 0
 63 811 -135 896 -83 1033 c 0
 -73 1059 -42 1096 -23 1090 c 0
 10 1079 44 1025 40 1014 c 0
 34 1002 23 993 15 988 c 0
 10 985 1 978 -1 973 c 0
 -25 913 113 865 159 841 c 0
 220 809 271 755 266 680 c 1
 300 680 l 2
 311 680 328 668 328 668 c 1
 368 628 l 2
 396 602 371 582 345 582 c 6xe0
EndSplineSet
EndChar

StartChar: uni094E
Encoding: 2382 2382 53
Width: 260
GlyphClass: 2
Flags: W
HStem: 582 98<162 287.988>
VStem: 54 111<-37.0418 582>
AnchorPoint: "Anchor-1" 139 680 basechar 0
AnchorPoint: "Anchor-0" 139 680 basechar 0
LayerCount: 2
Fore
SplineSet
305 582 m 6
 162 582 l 5
 165 -53 l 6
 165 -65 148 -96 116 -74 c 4
 107 -65 54 -27 54 0 c 6
 56 680 l 5
 260 680 l 6
 271 680 288 668 288 668 c 5
 328 630 l 6
 356 603 331 582 305 582 c 6
EndSplineSet
EndChar

StartChar: uni0955
Encoding: 2389 2389 54
Width: 0
GlyphClass: 4
Flags: W
HStem: 737 91<-282.305 211.988> 848 76<-167.538 15.1708>
AnchorPoint: "Anchor-14" 0 680 mark 0
AnchorPoint: "Anchor-3" 0 680 mark 0
AnchorPoint: "Anchor-1" 0 680 mark 0
LayerCount: 2
Fore
SplineSet
-51 848 m 4
 -210 848 -321 957 -321 996 c 4
 -321 1009 -309 1024 -285 1024 c 4
 -243 1024 -206 924 -73 924 c 4
 1 924 41 956 85 1000 c 4
 88 1003 91 1006 94 1009 c 4
 102 1017 110 1028 125 1028 c 4
 148 1028 216 986 216 961 c 4
 216 920 71 848 -51 848 c 4
229 737 m 6
 -262 737 l 6
 -299 737 -388 828 -307 828 c 6
 184 828 l 6
 195 828 212 817 212 817 c 5
 252 781 l 6
 280 757 255 737 229 737 c 6
EndSplineSet
EndChar

StartChar: uni0915
Encoding: 2325 2325 55
Width: 862
GlyphClass: 2
Flags: W
HStem: 64 74<606.783 657.854> 91 63<211.626 301.351> 407 51<612.759 693.832> 416 59<215.84 300.774> 582 98<-20.3055 407 511 889.988>
VStem: 56 125<186.663 377.252> 407 106<-39.3274 168 385 582> 712 122<202.36 371.111>
AnchorPoint: "Anchor-8" 220 -52 basechar 0
AnchorPoint: "Anchor-7" 459 -113 basechar 0
AnchorPoint: "Anchor-6" 488 -48 basechar 0
AnchorPoint: "Anchor-1" 462 680 basechar 0
AnchorPoint: "Anchor-0" 462 680 basechar 0
LayerCount: 2
Fore
SplineSet
407 382 m 1x5f
 407 462 l 1
 407 582 l 1
 0 582 l 2
 -37 582 -126 680 -45 680 c 2
 862 680 l 2
 873 680 890 668 890 668 c 1
 930 630 l 2
 958 603 933 582 907 582 c 2
 511 582 l 1
 513 385 l 1
 550 420 606 458 668 458 c 0
 781 458 834 371 834 272 c 0
 834 152 690 64 644 64 c 0
 621 64 597 90 597 111 c 0
 597 122 604 134 619 138 c 0
 667 149 712 210 712 291 c 0
 712 334 702 407 665 407 c 0xaf
 607 407 512.302783115 297.003198413 513 231 c 6
 516 -53 l 2
 516 -68 498 -103 466 -73 c 0
 456 -64 405 -27 405 0 c 2
 407 168 l 1
 372 121 324 91 249 91 c 0
 138 91 56 161 56 282 c 0
 56 402 135 475 249 475 c 0
 315 475 362 439 407 382 c 1x5f
253 416 m 0x5f
 209 416 181 349 181 282 c 0
 181 211 206 154 253 154 c 0
 309 154 355 240 382 297 c 1
 361 338 298 416 253 416 c 0x5f
EndSplineSet
EndChar

StartChar: uni0916
Encoding: 2326 2326 56
Width: 815
GlyphClass: 2
Flags: W
HStem: 37 93<301.172 518.279> 173 62<414.819 516.246> 448 58<416.553 513.905> 582 98<-40.967 136.792 203 613 717 842.988>
VStem: 158 81<409.108 551.684> 271 115<265.244 414.392> 607.219 112.781<-34.1163 113 161.582 251 413 582>
AnchorPoint: "Anchor-8" 144 -79 basechar 0
AnchorPoint: "Anchor-7" 383 -67 basechar 0
AnchorPoint: "Anchor-6" 692 -51 basechar 0
AnchorPoint: "Anchor-1" 673 680 basechar 0
AnchorPoint: "Anchor-0" 673 680 basechar 0
LayerCount: 2
Fore
SplineSet
860 582 m 2
 717 582 l 1
 720 -53 l 2
 720 -62 710.4375 -81.6875 692.15625 -81.6875 c 0
 686.0625 -81.6875 679 -79.5 671 -74 c 1
 617.576778121 -23.2149619173 607.218641283 -19.8450174665 607.218641283 11.5653366663 c 0
 607.218641283 27.7791915433 609.978515625 71.46484375 611 113 c 1
 547 62 480 37 398 37 c 0
 248 37 164 129 92 248 c 0
 60 300 28 378 28 397 c 0
 28 415 46 426 65 426 c 0
 92 426 110 405 126 405 c 0
 129 405 158 409 158 482 c 0
 158 501 150 544 124 582 c 1
 0 582 l 2
 -26.0815389825 582 -78.001519993 630.69552536 -78.001519993 659.43499538 c 0
 -78.001519993 671.466140601 -68.902576822 680 -45 680 c 2
 815 680 l 2
 826 680 843 668 843 668 c 1
 883 630 l 2
 891.732150907 621.579711625 895.309615141 613.742972685 895.309615141 606.944751191 c 0
 895.309615141 591.944196661 877.891574158 582 860 582 c 2
458 448 m 0
 420 448 386 399 386 339 c 0
 386 276 422 235 461 235 c 0
 495 235 532 259 586 331 c 1
 566 373 520 448 458 448 c 0
612 413 m 1
 613 472 613 552 613 582 c 1
 203 582 l 1
 232 527 239 483 239 441 c 0
 239 379 185 317 138 280 c 1
 211 180 317 130 399 130 c 0
 473 130 547 142 611 172 c 1
 612 251 l 1
 567 204 515 173 444 173 c 0
 356 173 271 235 271 339 c 4
 271 443 354 506 454 506 c 0
 520 506 571 459 612 413 c 1
EndSplineSet
EndChar

StartChar: uni0917
Encoding: 2327 2327 57
Width: 608
GlyphClass: 2
Flags: W
HStem: 582 98<-20.3055 142.986 209 405 510 635.988>
VStem: 159 106<283.923 476.782> 402 111<-37.9976 582>
AnchorPoint: "Anchor-8" 153 20 basechar 0
AnchorPoint: "Anchor-7" 296 -61 basechar 0
AnchorPoint: "Anchor-6" 480 -44 basechar 0
AnchorPoint: "Anchor-1" 464 678 basechar 0
AnchorPoint: "Anchor-0" 464 678 basechar 0
LayerCount: 2
Fore
SplineSet
653 582 m 2
 510 582 l 1
 513 -53 l 2
 513 -68 494 -103 463 -73 c 0
 453 -64 402 -27 402 0 c 2
 405 582 l 1
 209 582 l 1
 236 515 265 409 265 351 c 0
 265 218 246 194 199 194 c 0
 123 194 39 264 39 311 c 4
 39 338 70 347 100 347 c 2
 118 347 l 2
 158 347 159 366 159 463 c 0
 159 492 149 551 135 582 c 1
 0 582 l 2
 -37 582 -126 680 -45 680 c 2
 608 680 l 2
 619 680 636 668 636 668 c 1
 676 630 l 2
 704 603 679 582 653 582 c 2
EndSplineSet
EndChar

StartChar: uni0918
Encoding: 2328 2328 58
Width: 686
GlyphClass: 2
Flags: W
HStem: 4 50<276.394 379.113> 582 98<-20.3055 122 213.451 503 607 717.988>
VStem: 51 136<385.215 533.608> 95 128<125.004 264.002> 500 110<-36.4039 78 193.644 582>
AnchorPoint: "Anchor-8" 229 -62 basechar 0
AnchorPoint: "Anchor-7" 327 -61 basechar 0
AnchorPoint: "Anchor-6" 582 -54 basechar 0
AnchorPoint: "Anchor-1" 558 680 basechar 0
AnchorPoint: "Anchor-0" 558 680 basechar 0
LayerCount: 2
Fore
SplineSet
735 582 m 2xe8
 607 582 l 1
 610 -53 l 2
 610 -65 593 -96 561 -74 c 1
 484 -1 499 -30 500 78 c 1
 451 33 380 4 312 4 c 0
 188 4 95 61 95 182 c 0xd8
 95 233 118 280 156 314 c 1
 101 340 51 392 51 457 c 4
 51 490 64 548 122 582 c 5
 0 582 l 2
 -37 582 -126 680 -45 680 c 2
 690 680 l 2
 701 680 718 668 718 668 c 1
 758 630 l 2
 786 603 761 582 735 582 c 2xe8
234 582 m 1
 200 555 187 515 187 473 c 0xe8
 187 409 204 382 229 367 c 1
 252 381 285 405 312 405 c 0
 340 405 359 374 359 355 c 0
 359 305 223 306 223 221 c 0
 223 145 268 54 315 54 c 0
 399 54 499 181 500 281 c 0
 501.190108551 400.010855142 503 534 503 582 c 1
 234 582 l 1
EndSplineSet
EndChar

StartChar: uni0919
Encoding: 2329 2329 59
Width: 609
GlyphClass: 2
Flags: W
HStem: -7 45<258.089 404.048> 207 59<242.005 407.89> 223 62<303.082 434.698> 272 149<516.663 633.564> 442 45<243.351 404> 583 97<-20.3055 406 512 636.988>
VStem: 89 115<301.83 405.793> 404 110<487 583> 451 115<86.4229 207.681> 498 154<290.685 402.791>
AnchorPoint: "Anchor-8" 303 -115 basechar 0
AnchorPoint: "Anchor-7" 282 -11 basechar 0
AnchorPoint: "Anchor-6" 382 -38 basechar 0
AnchorPoint: "Anchor-1" 459 680 basechar 0
AnchorPoint: "Anchor-0" 459 680 basechar 0
LayerCount: 2
Fore
SplineSet
576 272 m 4x9e40
 525 272 498 300 498 347 c 4
 498 394 526 421 576 421 c 4
 625 421 652 394 652 347 c 4
 652 300 625 272 576 272 c 4x9e40
EndSplineSet
Refer: 68 2337 N 1 0 0 1 0 0 2
EndChar

StartChar: uni091A
Encoding: 2330 2330 60
Width: 715
GlyphClass: 2
Flags: W
HStem: 106 50<295.974 409.5> 404 97<97.6945 178 293.618 408.988> 582 98<-20.3055 509 613 742.988>
VStem: 131 128<196.717 363.146> 506 110<-38.92 176 280.252 384 384.093 582>
AnchorPoint: "Anchor-8" 269 -40 basechar 0
AnchorPoint: "Anchor-7" 411 -61 basechar 0
AnchorPoint: "Anchor-6" 588 -47 basechar 0
AnchorPoint: "Anchor-1" 568 680 basechar 0
AnchorPoint: "Anchor-0" 568 680 basechar 0
LayerCount: 2
Fore
SplineSet
760 582 m 2
 613 582 l 1
 616 -53 l 2
 616 -65 599 -96 567 -74 c 0
 556 -63 505 -27 505 1 c 2
 506 176 l 1
 467 135 415 106 348 106 c 0
 224 106 131 163 131 285 c 0
 131 332 150 372 178 404 c 1
 118 404 l 2
 81 404 -8 501 73 501 c 2
 381 501 l 2
 392 501 409 490 409 490 c 1
 449 451 l 2
 477 425 452 404 426 404 c 2
 319 404 l 1
 274 377 259 317 259 294 c 4
 259 217 284 156 351 156 c 0
 433 156 505.949500102 280.0005101 507 384 c 6
 507 384 509 512 509 582 c 1
 0 582 l 2
 -37 582 -126 680 -45 680 c 2
 715 680 l 2
 726 680 743 668 743 668 c 1
 783 630 l 2
 811 603 786 582 760 582 c 2
EndSplineSet
EndChar

StartChar: uni091B
Encoding: 2331 2331 61
Width: 682
GlyphClass: 2
Flags: W
HStem: 8 55<261.866 397.296> 315 79<231.521 291.927> 583 97<-20.3055 105 178.814 413 517 709.988>
VStem: 14 136<387.625 518.709> 58 128<147.157 267.062> 325 115<269.376 441.651> 411 107<489.333 583> 516 105<220.171 431.33>
AnchorPoint: "Anchor-8" 344 -127 basechar 0
AnchorPoint: "Anchor-7" 319 -11 basechar 0
AnchorPoint: "Anchor-6" 422 -6 basechar 0
AnchorPoint: "Anchor-1" 472 680 basechar 0
AnchorPoint: "Anchor-0" 472 680 basechar 0
LayerCount: 2
Fore
SplineSet
727 583 m 2xf0
 517 583 l 1
 518 565 518 535 518 498 c 1xf2
 587 476 621 412 621 351 c 0
 621 156 501 8 285 8 c 0
 163 8 58 64 58 185 c 0xe9
 58 236 81 282 119 316 c 1
 64 342 14 374 14 458 c 0
 14 491 48 558 105 583 c 1
 0 583 l 2
 -37 583 -126 680 -45 680 c 2
 682 680 l 2
 693 680 710 668 710 668 c 1
 750 630 l 2
 778 604 753 583 727 583 c 2xf0
480 467 m 0
 448 467 440 370 440 338 c 0
 440 279 460 217 486 192 c 1
 508 220 516 287 516 338 c 0xe5
 516 382 505 467 480 467 c 0
325 351 m 0
 325 406 346 476 411 498 c 1
 411 539 412 566 413 583 c 1
 197 583 l 1
 163 555 150 496 150 474 c 0xf2
 150 411 167 384 192 369 c 1
 215 383 228 394 255 394 c 0
 283 394 302 363 302 344 c 0
 302 331 294 320 281 315 c 0
 193 285 186 255 186 224 c 0xe8
 186 149 253 63 318 63 c 0
 377 63 426 92 460 148 c 5
 394 190 325 269 325 351 c 0
EndSplineSet
EndChar

StartChar: uni091C
Encoding: 2332 2332 62
Width: 762
GlyphClass: 2
Flags: W
HStem: 80 109<264.203 385.976> 384 72<278.279 328.686 402 559> 582 98<-20.3055 560 664 789.988>
VStem: 14 81<370.459 421.711> 393 125<195.466 290.943> 559 105<-40.6467 384 456 582>
AnchorPoint: "Anchor-8" 143 32 basechar 0
AnchorPoint: "Anchor-7" 425 -67 basechar 0
AnchorPoint: "Anchor-6" 639 -47 basechar 0
AnchorPoint: "Anchor-1" 616 680 basechar 0
AnchorPoint: "Anchor-0" 616 680 basechar 0
LayerCount: 2
Fore
SplineSet
402 384 m 5
 482 336 518 267 518 218 c 0
 518 118 436 80 359 80 c 0
 147 80 14 373 14 388 c 0
 14 414 37 428 64 428 c 0
 76 428 89 423 95 409 c 0
 154 286 249 189 339 189 c 0
 377 189 393 205 393 238 c 0
 393 263 391 350 281 385 c 1
 275 399 225 456 285 456 c 2
 559 456 l 1
 559 508 560 556 560 582 c 1
 0 582 l 2
 -37 582 -126 680 -45 680 c 2
 762 680 l 2
 773 680 790 668 790 668 c 1
 830 630 l 2
 858 603 833 582 807 582 c 2
 664 582 l 1
 667 -53 l 2
 667 -68 648 -103 617 -73 c 0
 607 -64 556 -27 556 0 c 2
 559 384 l 1
 402 384 l 5
EndSplineSet
EndChar

StartChar: uni091D
Encoding: 2333 2333 63
Width: 815
GlyphClass: 2
Flags: W
HStem: -227 113<270.146 404.876> -16 47<204.1 329.997> 120 65<476.961 589.951> 201 58<179.215 323.028> 217 62<228.158 364.625> 440 45<188.699 304> 581 99<-20.3055 306 412 613 717 842.988>
VStem: 24 125<288.7 404.508> 52 139<47.9344 134.764> 304 110<485 581> 610 110<-44.4043 137 205.37 581>
AnchorPoint: "Anchor-8" 84 -174 basechar 0
AnchorPoint: "Anchor-7" 426 -172 basechar 0
AnchorPoint: "Anchor-6" 692 -47 basechar 0
AnchorPoint: "Anchor-1" 670 680 basechar 0
AnchorPoint: "Anchor-0" 670 680 basechar 0
LayerCount: 2
Fore
SplineSet
308 217 m 0xeee0
 288.860351562 217 274.899747344 201 219 201 c 0
 153 201 24 242 24 352 c 0xf760
 24 420 80 485 194 485 c 2
 304 485 l 1
 305 525 306 561 306 581 c 1
 0 581 l 2
 -37 581 -126 680 -45 680 c 2
 815 680 l 2
 826 680 843 668 843 668 c 1
 883 629 l 2
 911 603 886 581 860 581 c 2
 717 581 l 1
 720 -59 l 2
 720 -71 703 -102 671 -80 c 0
 662 -71 609 -33 609 -6 c 2
 610 137 l 1
 594 126 575 120 555 120 c 0
 531 120 505 124 479 135 c 1
 470 65 418 -16 298 -16 c 0
 269 -16 214 -6 175 0 c 1
 197 -92 300 -114 378 -114 c 0
 398 -114 417 -149 417 -177 c 0
 417 -216 387 -227 354 -227 c 0
 247 -227 137 -126 116 21 c 1
 90 31 52 54 52 98 c 0
 52 140 92 156 119 156 c 0
 173 156 188.906599208 110.994412671 191 76 c 0
 192.914577717 43.9948899535 243 31 274 31 c 0
 346 31 356 93 356 149 c 0
 356 188 328 217 308 217 c 0xeee0
412 581 m 1
 412 548 414 508 414 440 c 1
 262 440 l 2
 167 440 149 375 149 352 c 0
 149 301 183 259 233 259 c 0xf760
 270 259 297 279 341 279 c 0xef60
 388 279 451 251 473 188 c 1
 488 186 503 185 513 185 c 0
 564 185 586 191 611 236 c 1
 613 581 l 1
 412 581 l 1
EndSplineSet
Substitution2: "Single Substitution lookup 828 subtable" uni091D.short
Substitution2: "'locl' Localized Forms lookup 755 subtable" uni091D.NEP
EndChar

StartChar: uni091D.short
Encoding: 1114115 -1 64
Width: 815
GlyphClass: 2
Flags: W
HStem: -167 113<267.168 404.876> -14 51<199.303 326.042> 122 65<476.961 590.977> 202 58<183.202 328.216> 218 62<227.494 365.14> 435 50<183.482 304> 582 98<-20.3055 306 412 613 717 842.988>
VStem: 24 125<294.134 402.469> 52 130<57.0685 139.628> 304 110<485 582> 610 110<-42.3206 138 206.582 582>
AnchorPoint: "Anchor-8" 84 -174 basechar 0
AnchorPoint: "Anchor-7" 426 -172 basechar 0
AnchorPoint: "Anchor-6" 692 -49 basechar 0
AnchorPoint: "Anchor-1" 666 680 basechar 0
AnchorPoint: "Anchor-0" 666 680 basechar 0
LayerCount: 2
Fore
SplineSet
479 136 m 1xf760
 470 67 418 -14 298 -14 c 0
 271 -14 213 -5 178 0 c 1
 210 -43 327 -54 378 -54 c 0
 398 -54 417 -89 417 -117 c 0
 417 -156 387 -167 354 -167 c 0
 250 -167 141 -72 117 23 c 1
 91 32 52 56 52 99 c 0
 52 141 92 158 119 158 c 0
 173 158 180 101 182 67 c 5
 208 54 243 37 274 37 c 0
 336 37 356 94 356 151 c 0
 356 189 328 218 318 218 c 0xeee0
 307 218 294 214 283 211 c 0
 267 207 246 202 219 202 c 0
 153 202 24 243 24 353 c 0
 24 421 80 485 194 485 c 2
 304 485 l 1
 305 526 306 561 306 582 c 1
 0 582 l 2
 -37 582 -126 680 -45 680 c 2
 815 680 l 2
 826 680 843 668 843 668 c 1
 883 630 l 2
 911 603 886 582 860 582 c 2
 717 582 l 1
 720 -57 l 2
 720 -69 703 -100 671 -77 c 0
 662 -69 609 -31 609 -4 c 2
 610 138 l 1
 594 128 575 122 555 122 c 0
 531 122 505 126 479 136 c 1xf760
412 582 m 1
 412 549 414 503 414 435 c 1
 262 435 l 2
 167 435 149 376 149 353 c 0
 149 302 193 260 233 260 c 0xf760
 270 260 297 280 341 280 c 0
 388 280 451 252 473 189 c 1
 488 187 503 187 513 187 c 0
 564 187 586 192 611 237 c 1
 613 582 l 1
 412 582 l 1
EndSplineSet
EndChar

StartChar: uni091E
Encoding: 2334 2334 65
Width: 890
GlyphClass: 2
Flags: W
HStem: 100 45<295.015 406.967> 280 56<582.413 674.939> 419 20G<100 120> 465 45<356.283 434.825> 582 98<-20.3055 690 793 918.988>
VStem: 32 113<350.823 420.315> 688 105<-41.0999 286 349.101 582>
AnchorPoint: "Anchor-8" 396 -52 basechar 0
AnchorPoint: "Anchor-7" 470 -67 basechar 0
AnchorPoint: "Anchor-6" 767 -47 basechar 0
AnchorPoint: "Anchor-1" 744 720 basechar 0
AnchorPoint: "Anchor-0" 744 680 basechar 0
LayerCount: 2
Fore
SplineSet
688 286 m 1
 676 282 663 280 646 280 c 0
 628 280 607 283 583 290 c 1
 575 218 531 100 362 100 c 0
 150 100 32 384 32 399 c 0
 32 415 86 439 114 439 c 0
 126 439 142.579820028 434.973187813 145 419 c 0
 165 287 270 145 357 145 c 0
 407 145 461 198 461 340 c 0
 461 424 429 465 404 465 c 0
 330 465 329 363 288 363 c 0
 248 363 223 427 223 444 c 0
 223 458 288 510 404 510 c 0
 500 510 564 429 580 341 c 1
 595 338 611 336 625 336 c 0
 664 336 681 359 689 385 c 1
 690 463 690 548 690 582 c 1
 0 582 l 2
 -37 582 -126 680 -45 680 c 2
 891 680 l 2
 902 680 919 668 919 668 c 1
 959 630 l 2
 987 603 962 582 936 582 c 2
 793 582 l 1
 796 -53 l 2
 796 -65 779 -96 747 -74 c 0
 738 -65 685 -27 685 0 c 2
 688 286 l 1
EndSplineSet
EndChar

StartChar: uni091F
Encoding: 2335 2335 66
Width: 556
GlyphClass: 2
Flags: W
HStem: 43 55<236.695 360.339> 427 45<238.409 329> 583 97<-20.3055 330 434 583.988>
VStem: 37 125<175.275 345.137> 329 109<472 583>
AnchorPoint: "Anchor-8" 299 -86 basechar 0
AnchorPoint: "Anchor-7" 292 0 basechar 0
AnchorPoint: "Anchor-6" 367 16 basechar 0
AnchorPoint: "Anchor-1" 387 680 basechar 0
AnchorPoint: "Anchor-0" 387 680 basechar 0
LayerCount: 2
Fore
SplineSet
601 583 m 2
 434 583 l 1
 438 427 l 5
 322 427 l 2
 201 427 162 326 162 260 c 0
 162 161 237 98 302 98 c 0
 357 98 364 124 395 157 c 2
 400 163 l 2
 408 171 420 181 433 181 c 0
 468 181 517 158 517 126 c 0
 517 93 416 43 301 43 c 0
 146 43 37 128 37 260 c 0
 37 383 146 472 273 472 c 2
 329 472 l 1
 329 521 329 561 330 583 c 1
 0 583 l 2
 -37 583 -126 680 -45 680 c 2
 556 680 l 2
 567 680 584 668 584 668 c 1
 624 630 l 2
 652 604 627 583 601 583 c 2
EndSplineSet
EndChar

StartChar: uni0920
Encoding: 2336 2336 67
Width: 629
GlyphClass: 2
Flags: W
HStem: 43 45<234.805 391.249> 432 45<209.816 329> 583 97<-20.3055 330 435 656.988>
VStem: 33 122<184.561 357.21> 329 109<477 583> 464 125<181.375 341.366>
AnchorPoint: "Anchor-8" 290 -92 basechar 0
AnchorPoint: "Anchor-7" 290 0 basechar 0
AnchorPoint: "Anchor-6" 346 16 basechar 0
AnchorPoint: "Anchor-1" 382 750 basechar 0
AnchorPoint: "Anchor-0" 378 680 basechar 0
LayerCount: 2
Fore
SplineSet
674 583 m 2
 435 583 l 1
 436 556 438 505 438 457 c 1
 510 422 589 347 589 272 c 0
 589 127 443 43 318 43 c 0
 164 43 33 139 33 272 c 0
 33 396 154 477 269 477 c 2
 329 477 l 1
 329 524 329 562 330 583 c 1
 0 583 l 2
 -37 583 -126 680 -45 680 c 2
 629 680 l 2
 640 680 657 668 657 668 c 1
 697 630 l 2
 725 604 700 583 674 583 c 2
383 432 m 1
 274 432 l 2
 196 432 155 360 155 272 c 0
 155 151 224 88 318 88 c 4
 411 88 464 166 464 272 c 0
 464 353 423 401 383 432 c 1
EndSplineSet
EndChar

StartChar: uni0921
Encoding: 2337 2337 68
Width: 609
GlyphClass: 2
Flags: W
HStem: -7 45<258.089 404.048> 207 59<242.005 407.89> 223 62<303.082 434.698> 442 45<243.351 404> 583 97<-20.3055 406 512 636.988>
VStem: 89 115<301.83 405.793> 404 110<487 583> 451 115<86.4229 207.681>
AnchorPoint: "Anchor-8" 363 -111 basechar 0
AnchorPoint: "Anchor-7" 359 -11 basechar 0
AnchorPoint: "Anchor-6" 417 -41 basechar 0
AnchorPoint: "Anchor-1" 461 680 basechar 0
AnchorPoint: "Anchor-0" 461 680 basechar 0
LayerCount: 2
Fore
SplineSet
393 223 m 4xbd
 368.157226562 223 343.311465777 207 294 207 c 4
 230 207 89 247 89 357 c 4
 89 424 145 487 259 487 c 6
 404 487 l 5
 405 527 406 562 406 583 c 5
 0 583 l 6
 -37 583 -126 680 -45 680 c 6
 609 680 l 6
 620 680 637 668 637 668 c 5
 677 630 l 6
 705 604 680 583 654 583 c 6
 512 583 l 5
 512 550 514 510 514 442 c 5
 327 442 l 6
 222 442 204 379 204 357 c 4
 204 308 248 266 308 266 c 4xde
 348 266 382 285 426 285 c 4
 483 285 566 253 566 156 c 4
 566 78 494 -7 363 -7 c 4
 166 -7 13 185 13 214 c 4
 13 236 35 249 54 249 c 4
 70 249 91.3766295167 226.91151638 99 215 c 4
 147 140 242 38 339 38 c 4
 417 38 451 108 451 156 c 4
 451 194 423 223 393 223 c 4xbd
EndSplineSet
EndChar

StartChar: uni0922
Encoding: 2338 2338 69
Width: 552
GlyphClass: 2
Flags: W
HStem: 43 45<234.514 300> 265 46<351.538 397.729> 432 45<233.831 329> 583 97<-20.3055 330 434 579.988>
VStem: 33 125<169.719 350.771> 248 96<115.235 261.25> 329 109<477 583> 408 98<122.458 260.548>
AnchorPoint: "Anchor-8" 318 -96 basechar 0
AnchorPoint: "Anchor-7" 299 0 basechar 0
AnchorPoint: "Anchor-6" 379 16 basechar 0
AnchorPoint: "Anchor-1" 382 681 basechar 0
AnchorPoint: "Anchor-0" 380 680 basechar 0
LayerCount: 2
Fore
SplineSet
597 583 m 2xfa
 434 583 l 1
 438 432 l 1xfa
 318 432 l 2
 188 432 158 327 158 260 c 0
 158 161 223 88 298 88 c 2
 300 88 l 1
 272 95 248 148 248 193 c 0
 248 268 310 311 376 311 c 0
 451 311 506 276 506 193 c 0xfd
 506 107 426 43 297 43 c 0
 142 43 33 128 33 260 c 0
 33 383 142 477 269 477 c 2
 329 477 l 1
 329 524 329 562 330 583 c 1
 0 583 l 2
 -37 583 -126 680 -45 680 c 2
 552 680 l 2
 563 680 580 668 580 668 c 1
 620 630 l 2
 648 604 623 583 597 583 c 2xfa
376 265 m 0
 359 265 344 245 344 193 c 0
 344 135 363 114 376 104 c 1
 389 114 408 145 408 193 c 0xfd
 408 235 393 265 376 265 c 0
EndSplineSet
EndChar

StartChar: uni0923
Encoding: 2339 2339 70
Width: 743
GlyphClass: 2
Flags: W
HStem: 167 52<194.484 303.6> 582 98<-20.3055 62 166 331 436 540 645 770.988>
VStem: 62 105<258.125 582> 331 105<253.567 582> 537 111<-37.0418 582>
AnchorPoint: "Anchor-8" 246 -17 basechar 0
AnchorPoint: "Anchor-7" 381 -61 basechar 0
AnchorPoint: "Anchor-6" 619 -45 basechar 0
AnchorPoint: "Anchor-1" 597 680 basechar 0
AnchorPoint: "Anchor-0" 597 680 basechar 0
LayerCount: 2
Fore
SplineSet
788 582 m 2
 645 582 l 1
 648 -53 l 2
 648 -65 631 -96 599 -74 c 0
 590 -65 537 -27 537 0 c 2
 540 582 l 1
 436 582 l 1
 436 340 l 2
 436 209 325 167 249 167 c 0
 183 167 62 210 62 340 c 2
 62 582 l 1
 0 582 l 2
 -37 582 -126 680 -45 680 c 2
 743 680 l 2
 754 680 771 668 771 668 c 1
 811 630 l 2
 839 603 814 582 788 582 c 2
331 582 m 1
 166 582 l 1
 167 314 l 2
 167 280 181 219 249 219 c 0
 317 219 331 280 331 314 c 2
 331 582 l 1
EndSplineSet
EndChar

StartChar: uni0924
Encoding: 2340 2340 71
Width: 614
GlyphClass: 2
Flags: W
HStem: 430 45<204.422 411> 582 98<-20.3055 412 516 641.988>
VStem: 34 125<191.11 383.501> 411 105<-41.0999 430 475 582>
AnchorPoint: "Anchor-8" 218 -176 basechar 0
AnchorPoint: "Anchor-7" 310 -76 basechar 0
AnchorPoint: "Anchor-6" 491 -47 basechar 0
AnchorPoint: "Anchor-1" 469 680 basechar 0
AnchorPoint: "Anchor-0" 469 680 basechar 0
LayerCount: 2
Fore
SplineSet
659 582 m 2
 516 582 l 1
 519 -53 l 2
 519 -65 502 -96 470 -74 c 0
 461 -65 408 -27 408 0 c 2
 411 430 l 5
 275 430 l 6
 174 430 159 347 159 285 c 0
 159 212 193 145 239 89 c 0
 248 78 256 66 259 55 c 2
 259 51 l 2
 256 29 228 -2 200 -2 c 0
 192 -2 185 1 181 5 c 0
 176 10 34 153 34 285 c 0
 34 399 99 475 235 475 c 2
 411 475 l 1
 411 522 411 560 412 582 c 1
 0 582 l 2
 -37 582 -126 680 -45 680 c 2
 614 680 l 2
 625 680 642 668 642 668 c 1
 682 630 l 2
 710 603 685 582 659 582 c 2
EndSplineSet
EndChar

StartChar: uni0925
Encoding: 2341 2341 72
Width: 745
GlyphClass: 2
Flags: W
HStem: 154 56<340.647 468.381> 583 98<470.695 545 647 772.988> 653 51<207.817 267.45>
VStem: 80 118<535.828 646.395> 288 116<487.633 617.598> 541 109<-39.7573 205 286.635 583>
AnchorPoint: "Anchor-8" 246 -32 basechar 0
AnchorPoint: "Anchor-7" 462 -67 basechar 0
AnchorPoint: "Anchor-6" 622 -47 basechar 0
AnchorPoint: "Anchor-1" 599 680 basechar 0
AnchorPoint: "Anchor-0" 599 680 basechar 0
LayerCount: 2
Fore
SplineSet
271 343 m 1xbc
 273 300 323 210 402 210 c 0
 481 210 524 287 541 326 c 1
 542 379 542 446 542 501 c 0
 542 534 544 563 545 583 c 1
 491 583 l 2
 454 583 365 681 446 681 c 2
 745 681 l 2
 756 681 773 669 773 669 c 1
 813 631 l 2
 841 604 816 583 790 583 c 2
 647 583 l 1xdc
 650 -53 l 2
 650 -65 633 -96 601 -74 c 0
 592 -65 539 -27 539 0 c 2
 541 205 l 1
 500 175 452 154 402 154 c 0
 230 154 143 313 143 380 c 0
 143 402 161 403 177 404 c 0
 217 404 250 416 273 434 c 1
 189 453 80 504 80 586 c 0
 80 661 156 704 238 704 c 0
 345 704 404 617 404 535 c 0
 404 435 343 384 288 353 c 2
 278 347 l 2
 275 345 273 344 271 343 c 1xbc
288 556 m 2
 288 601 266 653 238 653 c 0xbc
 208 653 198 612 198 586 c 0
 198 552 235 503 288 487 c 1
 288 556 l 2
EndSplineSet
EndChar

StartChar: uni0926
Encoding: 2342 2342 73
Width: 501
GlyphClass: 2
Flags: W
HStem: 72 50<208.421 328.383> 420 55<213.191 298> 582 98<-20.3055 299 403 528.988>
VStem: 31 125<178.42 360.543> 298 109<475 582> 307 130<135.45 235.406>
AnchorPoint: "Anchor-8" 228 -62 basechar 0
AnchorPoint: "Anchor-7" 264 -71 basechar 0
AnchorPoint: "Anchor-6" 441 -3 basechar 0
AnchorPoint: "Anchor-1" 354 680 basechar 0
AnchorPoint: "Anchor-0" 354 680 basechar 0
LayerCount: 2
Fore
SplineSet
546 582 m 2xf8
 403 582 l 1
 407 420 l 1xf8
 297 420 l 2
 178 420 156 340 156 272 c 0
 156 171 209 122 274 122 c 0
 291 122 320 126 329 129 c 1
 309 152 307 174 307 186 c 0
 307 230 344 254 373 254 c 0
 409 254 437 223 437 192 c 0xf4
 437 175 423 140 408 127 c 5
 418 93 457.124421773 74.9590400549 480 47 c 0
 489 36 495 28 495 13 c 0
 495 -17 472 -33 444 -33 c 0
 426 -33 377 41 350 90 c 1
 323 77 286 72 260 72 c 0
 135 72 31 138 31 272 c 0
 31 396 142 475 248 475 c 2
 298 475 l 1
 298 523 298 561 299 582 c 1
 0 582 l 2
 -37 582 -126 680 -45 680 c 2
 501 680 l 2
 512 680 529 668 529 668 c 1
 569 630 l 2
 597 604 572 582 546 582 c 2xf8
EndSplineSet
EndChar

StartChar: uni0927
Encoding: 2343 2343 74
Width: 624
GlyphClass: 2
Flags: W
HStem: 4 50<233.531 334.454> 326 79<255.651 315.927> 437 51<145 187.639> 582 98<359.695 424 528 652.988> 624 49<164.897 206.251>
VStem: 18 127<488 563.786> 62 128<108.002 264.714> 214 101<513.198 622.478> 421 110<-37.4574 70 180.052 582>
AnchorPoint: "Anchor-8" 225 -75 basechar 0
AnchorPoint: "Anchor-7" 360 -67 basechar 0
AnchorPoint: "Anchor-6" 503 -47 basechar 0
AnchorPoint: "Anchor-1" 480 680 basechar 0
AnchorPoint: "Anchor-0" 480 680 basechar 0
LayerCount: 2
Fore
SplineSet
702 590 m 0xf380
 693 584 680 582 671 582 c 2
 528 582 l 1
 531 -53 l 2
 531 -65 514 -96 482 -74 c 1
 408 -3 420 -31 421 70 c 1
 388 31 345 4 279 4 c 0
 155 4 62 61 62 182 c 0xf380
 62 233 85 280 123 314 c 1
 68 340 18 392 18 477 c 0
 18 561 88 673 188 673 c 0
 281 673 315 603 315 551 c 0
 315 469 224 437 159 437 c 0
 154 437 149 437 145 437 c 1xed80
 149 397 163 370 182 360 c 1
 204 374 252 405 279 405 c 0
 307 405 326 374 326 355 c 0
 326 343 320 331 305 326 c 0
 217 296 190 251 190 221 c 0
 190 144 215 54 282 54 c 0
 362 54 421.48839468 204.003399371 422 281 c 2
 424 582 l 1
 380 582 l 2
 343 582 254 680 335 680 c 2
 626 680 l 2
 637 680 653 669 653 669 c 1
 703 630 l 2
 715 619 718 600 702 590 c 0xf380
145 488 m 1xed80
 187 488 214 538 214 564 c 0
 214 587 205 624 191 624 c 0
 160 624 145 558 145 488 c 1xed80
EndSplineSet
EndChar

StartChar: uni0928
Encoding: 2344 2344 75
Width: 610
GlyphClass: 2
Flags: W
HStem: 314 61<215.489 406> 582 98<-20.3055 406 512 637.988>
VStem: 406 106<-39.3274 314 375 582>
AnchorPoint: "Anchor-8" 154 -19 basechar 0
AnchorPoint: "Anchor-7" 289 -67 basechar 0
AnchorPoint: "Anchor-6" 487 -47 basechar 0
AnchorPoint: "Anchor-1" 463 680 basechar 0
AnchorPoint: "Anchor-0" 463 680 basechar 0
LayerCount: 2
Fore
SplineSet
655 582 m 2
 512 582 l 1
 515 -53 l 2
 515 -68 496 -103 465 -73 c 0
 455 -64 404 -27 404 0 c 2
 406 314 l 1
 244 314 l 2
 223 314 215 309 215 282 c 2
 215 229 l 2
 215 202 206 181 176 181 c 0
 128 181 41 257 41 321 c 4
 41 355 45 375 178 375 c 6
 406 375 l 5
 406 582 l 1
 0 582 l 2
 -37 582 -126 680 -45 680 c 2
 610 680 l 2
 621 680 638 668 638 668 c 1
 678 630 l 2
 706 603 681 582 655 582 c 2
EndSplineSet
EndChar

StartChar: uni092A
Encoding: 2346 2346 76
Width: 605
GlyphClass: 2
Flags: W
HStem: 174 50<188.859 330.351> 582 98<-20.3055 59 164 408 513 632.988>
VStem: 58 106<265.067 582> 408 105<-41.0999 230 305.932 582>
AnchorPoint: "Anchor-8" 144 9 basechar 0
AnchorPoint: "Anchor-7" 297 -67 basechar 0
AnchorPoint: "Anchor-6" 488 -44 basechar 0
AnchorPoint: "Anchor-1" 465 680 basechar 0
AnchorPoint: "Anchor-0" 465 680 basechar 0
LayerCount: 2
Fore
SplineSet
650 582 m 2
 513 582 l 1
 516 -53 l 2
 516 -65 499 -96 467 -74 c 0
 458 -65 405 -27 405 0 c 2
 407 230 l 1
 363 193 320 174 249 174 c 0
 171 174 58 232 58 341 c 2
 59 582 l 1
 0 582 l 2
 -37 582 -126 680 -45 680 c 2
 605 680 l 2
 616 680 633 668 633 668 c 1
 673 630 l 2
 701 603 676 582 650 582 c 2
408 582 m 1
 164 582 l 1
 164 319 l 6
 164 293 170 224 243 224 c 4
 369 224 408 327 408 388 c 6
 408 582 l 1
EndSplineSet
EndChar

StartChar: uni092B
Encoding: 2347 2347 77
Width: 846
GlyphClass: 2
Flags: W
HStem: 174 53<187.929 323.38> 408 59<612.646 717.218> 582 98<-20.3055 59 163 405 509 873.988>
VStem: 58 105<265.067 582> 404 106<-41.0999 229 404.609 582> 750 78<241.746 373.838>
AnchorPoint: "Anchor-8" 157 27 basechar 0
AnchorPoint: "Anchor-7" 416 -87 basechar 0
AnchorPoint: "Anchor-6" 484 -47 basechar 0
AnchorPoint: "Anchor-1" 462 680 basechar 0
AnchorPoint: "Anchor-0" 462 680 basechar 0
LayerCount: 2
Fore
SplineSet
510 401 m 5
 544 431 597 467 661 467 c 0
 769 467 828 380 828 284 c 0
 828 171 735 60 703 60 c 0
 676 60 643 102 643 132 c 0
 643 170 750 216 750 311 c 0
 750 347 722 408 669 408 c 0
 607 408 536 318 510 267 c 1
 512 -53 l 2
 512 -65 495 -96 463 -74 c 0
 454 -65 401 -27 401 0 c 2
 404 229 l 1
 361 193 319 174 248 174 c 0
 170 174 58 232 58 341 c 2
 59 582 l 1
 0 582 l 2
 -37 582 -126 680 -45 680 c 2
 846 680 l 2
 857 680 874 668 874 668 c 1
 914 630 l 2
 942 603 917 582 891 582 c 2
 509 582 l 1
 509 546 509 474 510 401 c 5
163 582 m 1
 163 322 l 2
 163 296 169 227 242 227 c 0
 404 227 405 401 405 582 c 1
 163 582 l 1
EndSplineSet
EndChar

StartChar: uni092C
Encoding: 2348 2348 78
Width: 611
GlyphClass: 2
Flags: W
HStem: 421 54<216.354 301.448> 582 98<-20.3055 409 513 638.988>
VStem: 56 125<187.526 310.891> 407 109<-39.7573 148 402 582>
AnchorPoint: "Anchor-8" 213 -55 basechar 0
AnchorPoint: "Anchor-7" 306 -67 basechar 0
AnchorPoint: "Anchor-6" 488 -47 basechar 0
AnchorPoint: "Anchor-1" 467 680 basechar 0
AnchorPoint: "Anchor-0" 467 680 basechar 0
LayerCount: 2
Fore
SplineSet
408 402 m 1
 409 477 409 549 409 582 c 1
 0 582 l 2
 -37 582 -126 680 -45 680 c 2
 611 680 l 2
 622 680 639 668 639 668 c 1
 679 630 l 2
 707 603 682 582 656 582 c 2
 513 582 l 1
 516 -53 l 2
 516 -65 499 -96 467 -74 c 0
 458 -65 405 -27 405 0 c 2
 407 148 l 1
 364 113 324 91 249 91 c 0
 138 91 56 161 56 282 c 0
 56 402 135 475 249 475 c 0
 315 475 367 448 408 402 c 1
257 421 m 4
 223 421 211 398 208 382 c 1
 367 226 l 1
 376 240 391.340642854 269.912135723 382 297 c 4
 372 326 302 421 257 421 c 4
183 313 m 1
 182 303 181 292 181 282 c 0
 181 211 207 157 253 144 c 4
 279.26593504 136.577018358 318 149 326 172 c 1
 183 313 l 1
EndSplineSet
EndChar

StartChar: uni092D
Encoding: 2349 2349 79
Width: 745
GlyphClass: 2
Flags: W
HStem: 355 57<394.098 539.431> 583 98<419.033 543 647 772.988> 653 51<193.797 270.737>
VStem: 70 117.051<544.604 647.319> 299 95<487 617.598> 542 105<-42.677 353 403 583>
AnchorPoint: "Anchor-8" 277 -14 basechar 0
AnchorPoint: "Anchor-7" 413 -67 basechar 0
AnchorPoint: "Anchor-6" 622 -47 basechar 0
AnchorPoint: "Anchor-1" 599 680 basechar 0
AnchorPoint: "Anchor-0" 599 680 basechar 0
LayerCount: 2
Fore
SplineSet
622.15625 -81.6875 m 0xdc
 601.518499522 -81.6875 539 -30.6895580674 539 0 c 2
 542 353 l 1
 517 354 496 355 477 355 c 0
 379 355 364 319 364 287 c 0
 364 282 365 277 365 272 c 0
 365 251 365 221 332 221 c 0
 297 221 194 332 194 380 c 0
 194 411.391304348 248.593572779 414.120982987 282.239829046 414.120982987 c 0
 289.323251418 414.120982987 295.47826087 414 300 414 c 1
 298 425 292 427 282 429 c 0
 194 446 70 499 70 586 c 0
 70 661 146 704 228 704 c 0xbc
 335 704 394 617 394 535 c 2
 394 412 l 1
 445 411 487 408 542 403 c 1
 543 479 543 550 543 583 c 1
 460 583 l 2
 433.918461017 583 381.998480007 631.69552536 381.998480007 660.43499538 c 0
 381.998480007 672.466140601 391.097423178 681 415 681 c 2
 745 681 l 2
 756 681 773 669 773 669 c 1
 813 631 l 2
 821.732150907 622.579711625 825.309615141 614.742972685 825.309615141 607.944751191 c 0
 825.309615141 592.944196661 807.891574158 583 790 583 c 2
 647 583 l 1
 650 -53 l 2
 650 -62 640.4375 -81.6875 622.15625 -81.6875 c 0xdc
298 555 m 2
 297.117621622 615.00172973 261 653 228 653 c 0
 196.827585282 653 187.050848499 623.693924909 187.050848499 599.086217423 c 0
 187.050848499 547.791270637 243.1543587 502.035364965 299 487 c 1
 298 555 l 2
EndSplineSet
EndChar

StartChar: uni092E
Encoding: 2350 2350 80
Width: 595
GlyphClass: 2
Flags: W
HStem: 314 61<215 404> 326 49<114 215> 582 98<-20.3055 114 215 405 510 622.988>
VStem: 114 101<328 582> 404 106<-39.7573 314 375 582>
AnchorPoint: "Anchor-8" 103 -12 basechar 0
AnchorPoint: "Anchor-7" 263 -65 basechar 0
AnchorPoint: "Anchor-6" 485 -47 basechar 0
AnchorPoint: "Anchor-1" 460 680 basechar 0
AnchorPoint: "Anchor-0" 460 680 basechar 0
LayerCount: 2
Fore
SplineSet
640 582 m 2x78
 510 582 l 1
 513 -53 l 2
 513 -65 496 -96 464 -74 c 0
 455 -65 402 -27 402 0 c 2
 404 314 l 5
 215 314 l 5xb8
 215 231 l 2
 215 206 206 181 176 181 c 0
 127 181 41 271 41 321 c 0
 41 355 45 375 178 375 c 2x78
 215 375 l 1
 404 375 l 1
 405 457 405 545 405 582 c 1
 215 582 l 1
 215 375 l 1xb8
 215 326 l 1
 114 328 l 1
 114 582 l 1
 0 582 l 2
 -37 582 -126 680 -45 680 c 2
 595 680 l 2
 606 680 623 668 623 668 c 1
 663 630 l 2
 691 603 666 582 640 582 c 2x78
EndSplineSet
EndChar

StartChar: uni092F
Encoding: 2351 2351 81
Width: 608
GlyphClass: 2
Flags: W
HStem: 166 50<239.225 360.135> 582 98<-20.3055 147.658 188 406 510 635.988>
VStem: 169 113<411.828 513.308> 404 109<-39.7573 191 265.405 582>
AnchorPoint: "Anchor-8" 169 -32 basechar 0
AnchorPoint: "Anchor-7" 275 -67 basechar 0
AnchorPoint: "Anchor-6" 485 -47 basechar 0
AnchorPoint: "Anchor-1" 463 680 basechar 0
AnchorPoint: "Anchor-0" 463 680 basechar 0
LayerCount: 2
Fore
SplineSet
653 582 m 6
 510 582 l 5
 513 -53 l 6
 513 -65 496 -96 464 -74 c 4
 455 -65 402 -27 402 0 c 6
 404 191 l 5
 370 174 339 166 302 166 c 4
 168 166 40 317 40 364 c 4
 40 389 64 395 92 395 c 6
 109 395 l 6
 144 395 169 425 169 480 c 4
 169 515 149 563 135 582 c 5
 0 582 l 6
 -37 582 -126 680 -45 680 c 6
 608 680 l 6
 619 680 636 668 636 668 c 5
 676 630 l 6
 704 603 679 582 653 582 c 6
188 582 m 5
 233 552 282 506 282 451 c 4
 282 378 228 351 174 327 c 5
 177 299 230 216 302 216 c 4
 370 216 403.368469647 282.00553974 404 354 c 6
 406 582 l 5
 188 582 l 5
EndSplineSet
EndChar

StartChar: uni0930
Encoding: 2352 2352 82
Width: 444
GlyphClass: 2
Flags: W
HStem: -15 109<281.807 379.248> 583 97<-20.3055 206.606 274 471.988>
VStem: 55 134<323.109 382.981> 231 125<373.803 509.823>
AnchorPoint: "Anchor-8" 26 38 basechar 0
AnchorPoint: "Anchor-7" 139 0 basechar 0
AnchorPoint: "Anchor-6" 247 0 basechar 0
AnchorPoint: "Anchor-1" 258 680 basechar 0
AnchorPoint: "Anchor-0" 224 680 basechar 0
LayerCount: 2
Fore
SplineSet
189 322 m 1
 216 344 231 409 231 438 c 0
 231 472 224 535 196 583 c 1
 0 583 l 2
 -37 583 -126 680 -45 680 c 2
 444 680 l 2
 455 680 472 668 472 668 c 1
 512 630 l 2
 540 604 515 583 489 583 c 2
 274 583 l 1
 320 544 356 487 356 438 c 0
 356 362 259 282 180 267 c 1
 187 154 291.935546875 102.541992188 326 98 c 0
 341 96 346 96 356 94 c 0
 374 92 387 67 387 42 c 0
 387 12 377 -15 333 -15 c 0
 186 -15 124 175 120 276 c 1
 94 281 55 311 55 351 c 0
 55 393 94 409 120 409 c 0
 170 409 185 351 189 322 c 1
EndSplineSet
Substitution2: "Single Substitution lookup 789 subtable" uni0960
Substitution2: "Single Substitution lookup 788 subtable" uni090B
EndChar

StartChar: uni0932
Encoding: 2354 2354 83
Width: 750
GlyphClass: 2
Flags: W
HStem: -3 55<278.736 320.152> 414 59<178.608 267.728 490.358 546> 582 98<-20.3055 547 652 777.988>
VStem: 34 125<210.097 388.089> 316 119<189.633 343.872> 546 106<-39.7573 418 466.538 582>
AnchorPoint: "Anchor-8" 153 -159 basechar 0
AnchorPoint: "Anchor-7" 335 -141 basechar 0
AnchorPoint: "Anchor-6" 627 -47 basechar 0
AnchorPoint: "Anchor-1" 602 680 basechar 0
AnchorPoint: "Anchor-0" 602 680 basechar 0
LayerCount: 2
Fore
SplineSet
795 582 m 2
 652 582 l 1
 655 -53 l 2
 655 -65 638 -96 606 -74 c 0
 597 -65 544 -27 544 0 c 2
 546 418 l 1
 439 392 435 306 435 270 c 0
 435 239 441 220 450 203 c 0
 452 198 455 191 455 185 c 0
 455 169 442 160 428 160 c 0
 337 160 316 199 316 280 c 0
 316 294 318 311 323 330 c 1
 301 375 251 414 211 414 c 0
 173 414 159 353 159 306 c 0
 159 245 175 162 223 117 c 0
 248.32421875 93.2578125 278 73 306 52 c 0
 317 44 321 35 321 29 c 0
 321 -4 301.893152577 -6.78717830928 288 -3 c 0
 263.707040823 3.6220944132 33 123 34 306 c 0
 34 412 122 473 202 473 c 0
 249 473 303 448 361 386 c 1
 426 444 468 458 546 470 c 1
 547 582 l 1
 0 582 l 2
 -37 582 -126 680 -45 680 c 2
 750 680 l 2
 761 680 778 668 778 668 c 1
 818 630 l 2
 846 603 821 582 795 582 c 2
EndSplineSet
Substitution2: "'locl' Localized Forms lookup 754 subtable" uni0932.MAR
EndChar

StartChar: uni0935
Encoding: 2357 2357 84
Width: 611
GlyphClass: 2
Flags: W
HStem: 91 53<213.07 307.739> 425 50<216.588 308.714> 582 98<-20.3055 409 513 638.988>
VStem: 56 125<187.296 379.281> 407 109<-39.7573 148 402 582>
AnchorPoint: "Anchor-8" 221 -55 basechar 0
AnchorPoint: "Anchor-7" 312 -67 basechar 0
AnchorPoint: "Anchor-6" 488 -47 basechar 0
AnchorPoint: "Anchor-1" 468 680 basechar 0
AnchorPoint: "Anchor-0" 468 680 basechar 0
LayerCount: 2
Fore
SplineSet
408 402 m 1
 409 477 409 549 409 582 c 1
 0 582 l 2
 -37 582 -126 680 -45 680 c 2
 611 680 l 2
 622 680 639 668 639 668 c 1
 679 630 l 2
 707 603 682 582 656 582 c 2
 513 582 l 1
 516 -53 l 2
 516 -65 499 -96 467 -74 c 0
 458 -65 405 -27 405 0 c 2
 407 148 l 1
 364 113 324 91 249 91 c 0
 138 91 56 161 56 282 c 0
 56 402 135 475 249 475 c 0
 315 475 367 448 408 402 c 1
253 425 m 0
 209 425 181 349 181 282 c 0
 181 211 206 144 253 144 c 0
 309 144 380 223 402 297 c 5
 366 365 298 425 253 425 c 0
EndSplineSet
EndChar

StartChar: uni0936
Encoding: 2358 2358 85
Width: 815
GlyphClass: 2
Flags: W
HStem: -91 111<328.61 452.555> 132 128<73.1314 162.652> 582 98<513.695 612 717 842.988> 623 50<233.736 315.807>
VStem: 86 124<465.662 584.212> 356 124<393.642 569.043> 609 111<-38.1755 582>
AnchorPoint: "Anchor-8" 226 -40 basechar 0
AnchorPoint: "Anchor-7" 517 -105 basechar 0
AnchorPoint: "Anchor-6" 692 -45 basechar 0
AnchorPoint: "Anchor-1" 670 680 basechar 0
AnchorPoint: "Anchor-0" 670 680 basechar 0
LayerCount: 2
Fore
SplineSet
860 582 m 2xee
 717 582 l 1
 720 -54 l 2
 720 -69 701 -103 670 -73 c 0
 660 -64 609 -27 609 -1 c 2
 612 582 l 1
 534 582 l 2
 497 582 408 680 489 680 c 2
 815 680 l 2
 826 680 843 668 843 668 c 1
 883 630 l 2
 911 603 886 582 860 582 c 2xee
195 196 m 1
 226 204 283 271 324 351 c 1
 204 362 86 398 86 508 c 0
 86 592 159 673 277 673 c 0xde
 354 673 480 622 480 478 c 0
 480 327 333 183 209 149 c 1
 262 64 350 20 390 20 c 0
 408 20 424 34 439 34 c 0
 472 34 493 -19 493 -35 c 0
 493 -64 435 -91 404 -91 c 0
 307 -91 214 19 154 132 c 1
 113 134 49 146 49 199 c 0
 49 230 81 260 117 260 c 0
 153 260 176 229 195 196 c 1
277 623 m 0
 227 623 210 570 210 522 c 0
 210 470 279 401 342 392 c 1
 347 409 356 437 356 471 c 0
 356 551 319 623 277 623 c 0
EndSplineSet
Substitution2: "'locl' Localized Forms lookup 754 subtable" uni0936.MAR
EndChar

StartChar: uni0937
Encoding: 2359 2359 86
Width: 605
GlyphClass: 2
Flags: W
HStem: 174 53<188.859 311.487> 582 98<-20.3055 59 182 407 512 632.988>
VStem: 58 106<265.067 495> 406 109<-39.7573 230 374.611 582>
AnchorPoint: "Anchor-8" 129 8 basechar 0
AnchorPoint: "Anchor-7" 289 -67 basechar 0
AnchorPoint: "Anchor-6" 487 -47 basechar 0
AnchorPoint: "Anchor-1" 462 680 basechar 0
AnchorPoint: "Anchor-0" 462 680 basechar 0
LayerCount: 2
Fore
SplineSet
650 582 m 2
 512 582 l 1
 515 -53 l 2
 515 -65 498 -96 466 -74 c 0
 457 -65 404 -27 404 0 c 2
 406 230 l 1
 363 193 320 174 249 174 c 0
 171 174 58 232 58 341 c 2
 59 582 l 1
 0 582 l 2
 -37 582 -126 680 -45 680 c 2
 605 680 l 2
 616 680 633 668 633 668 c 1
 673 630 l 2
 701 603 676 582 650 582 c 2
182 582 m 1
 402 374 l 1
 405 387 406 402 406 416 c 2
 407 582 l 1
 182 582 l 1
164 495 m 1
 164 322 l 2
 164 296 170 227 243 227 c 0
 301 227 344 269 367 305 c 5
 164 495 l 1
EndSplineSet
EndChar

StartChar: uni0938
Encoding: 2360 2360 87
Width: 712
GlyphClass: 2
Flags: W
HStem: -18 110<249.795 346.248> 255 54<285.608 464.502> 582 98<-20.3055 183.606 251 511 615 740.988>
VStem: 32 131<317.785 382.739> 208 119<359.031 514.636> 509 106<-39.7573 283 345.781 582>
AnchorPoint: "Anchor-8" 29 -20 basechar 0
AnchorPoint: "Anchor-7" 281 -69 basechar 0
AnchorPoint: "Anchor-6" 590 -47 basechar 0
AnchorPoint: "Anchor-1" 567 680 basechar 0
AnchorPoint: "Anchor-0" 567 680 basechar 0
LayerCount: 2
Fore
SplineSet
163 317 m 1
 190 339 208 407 208 437 c 0
 208 471 201 534 173 582 c 1
 0 582 l 2
 -37 582 -126 680 -45 680 c 2
 713 680 l 2
 724 680 741 668 741 668 c 1
 781 630 l 2
 809 603 784 582 758 582 c 2
 615 582 l 1
 618 -53 l 2
 618 -65 601 -96 569 -74 c 0
 560 -65 507 -27 507 0 c 2
 509 283 l 1
 470 262 427 255 396 255 c 0
 362 255 300 263 249 293 c 1
 229 281 196 264 169 257 c 1
 176 144 259 100 293 96 c 0
 308 94 313 93 323 92 c 0
 341 89 354 64 354 39 c 0
 354 9 344 -18 300 -18 c 0
 153 -18 114 161 110 262 c 1
 64 277 32 310 32 349 c 0
 32 392 71 407 97 407 c 0
 147 407 159 345 163 317 c 1
251 582 m 1
 301 534 327 488 327 438 c 0
 327 402 310 358 284 327 c 1
 306 320 349 309 377 309 c 0
 440 309 510 346 510 381 c 2
 511 582 l 1
 251 582 l 1
EndSplineSet
EndChar

StartChar: uni0939
Encoding: 2361 2361 88
Width: 536
GlyphClass: 2
Flags: W
HStem: -173 69<391.791 456.505> 274 50<209.412 346.374> 419 55<203.411 331> 582 98<-20.3055 333 438 563.988>
VStem: 33 125<62.3398 207.376> 67 112<319.213 399.482> 331 111<474 582> 391 106<117.751 232.623>
AnchorPoint: "Anchor-8" 150 -178 basechar 0
AnchorPoint: "Anchor-7" 278 -76 basechar 0
AnchorPoint: "Anchor-6" 411 -150 basechar 0
AnchorPoint: "Anchor-1" 390 680 basechar 0
AnchorPoint: "Anchor-0" 390 680 basechar 0
LayerCount: 2
Fore
SplineSet
442 419 m 1xf6
 252 419 l 2
 194 419 179 369 179 347 c 0xf6
 179 329 188 321 213 316 c 1
 230 319 260 324 276 324 c 0
 392 324 497 267 497 179 c 0
 497 97 407 33 388 33 c 0
 376 33 338 49 338 79 c 0
 338 107 391 105 391 182 c 0
 391 206 365 274 272 274 c 0
 186 274 158 197 158 138 c 0
 158 27 278 -49 378 -79 c 0
 393 -84 433 -95 445 -104 c 0
 453 -110 458 -123 458 -141 c 0
 458 -153 452 -173 428 -173 c 0
 361 -173 33 -55 33 129 c 0xf9
 33 189 67 241 123 282 c 1
 86 304 67 332 67 364 c 0
 67 413 113 474 236 474 c 2
 331 474 l 1
 332 518 333 558 333 582 c 1
 0 582 l 2
 -37 582 -126 680 -45 680 c 2
 536 680 l 2
 547 680 564 668 564 668 c 1
 604 630 l 2
 632 603 607 582 581 582 c 2
 438 582 l 1
 442 419 l 1xf6
EndSplineSet
EndChar

StartChar: uni0933
Encoding: 2355 2355 89
Width: 800
GlyphClass: 2
Flags: W
HStem: 63 51<195.663 274.027 514.81 603.94> 394 50<196.06 280.673> 583 97<-20.3055 507 611 827.988>
VStem: 35 125<166.913 339.231> 506 106<436.083 583> 640 125<168.019 344.938>
AnchorPoint: "Anchor-8" 382 -27 basechar 0
AnchorPoint: "Anchor-7" 370 0 basechar 0
AnchorPoint: "Anchor-6" 581 32 basechar 0
AnchorPoint: "Anchor-1" 562 680 basechar 0
AnchorPoint: "Anchor-0" 562 680 basechar 0
LayerCount: 2
Fore
SplineSet
845 583 m 2
 611 583 l 1
 611 556 612 503 612 440 c 1
 705 429 765 343 765 254 c 0
 765 154 683 63 578 63 c 0
 502 63 446 103 390 156 c 1
 349 114 288 65 219 65 c 0
 116 65 35 155 35 254 c 0
 35 352 117 444 222 444 c 0
 298 444 351 402 404 339 c 5
 432 374 466 417 506 435 c 1
 507 496 507 554 507 583 c 1
 0 583 l 2
 -37 583 -126 680 -45 680 c 2
 800 680 l 2
 811 680 828 668 828 668 c 1
 868 630 l 2
 896 604 871 583 845 583 c 2
568 387 m 0
 511 387 459 290 443 221 c 1
 458 177 522 114 568 114 c 0
 612 114 640 187 640 254 c 0
 640 324 615 387 568 387 c 0
232 394 m 0
 188 394 160 320 160 254 c 0
 160 183 185 120 232 120 c 0
 288 120 342 206 354 269 c 1
 344 318 276 394 232 394 c 0
EndSplineSet
EndChar

StartChar: uni0915094D0937
Encoding: 1114116 -1 90
Width: 753
GlyphClass: 2
Flags: W
HStem: 2 51<206.767 299.957> 300 68<338.491 493.068> 582 98<461.695 550 655 780.988> 622 51<214.146 275.868>
VStem: 80 122<472.464 609.139> 80 96<112.781 235.711> 283 130<117.707 213.792> 292 121<464.036 609.444> 549 106<-39.3274 327 408.98 582>
AnchorPoint: "Anchor-7" 446 -181 basechar 0
AnchorPoint: "Anchor-6" 630 -47 basechar 0
AnchorPoint: "Anchor-1" 606 680 basechar 0
AnchorPoint: "Anchor-0" 606 680 basechar 0
LayerCount: 2
Fore
SplineSet
798 582 m 2xe980
 655 582 l 1
 658 -53 l 2
 658 -68 639 -103 608 -73 c 0
 598 -64 547 -27 547 0 c 2
 549 327 l 1
 508 306 472 300 447 300 c 0
 408 300 337 307 286 342 c 1
 226 309 176 210 176 167 c 0
 176 115 200 53 252 53 c 0
 273 53 315 83 322 94 c 1
 292 118 283 154 283 164 c 0
 283 209 320 232 349 232 c 0
 385 232 413 201 413 171 c 0
 413 153 404 132 394 117 c 1
 406 79 476 0 476 -28 c 0
 476 -58 453 -74 425 -74 c 0
 406 -74 368 -21 344 22 c 1
 307 4 279 2 253 2 c 0
 135 2 80 133 80 203 c 0xe680
 80 274 145 337 194 385 c 1
 142 417 80 471 80 544 c 0
 80 612 144 673 247 673 c 0xd880
 319 673 413 637 413 544 c 0
 413 499 377 423 338 379 c 1
 357 371 386 368 405 368 c 0
 454 368 505 390 549 424 c 1
 550 582 l 1
 482 582 l 2
 445 582 356 680 437 680 c 2
 753 680 l 2
 764 680 781 668 781 668 c 1
 821 630 l 2
 849 603 824 582 798 582 c 2xe980
247 622 m 0xd980
 209 622 202 574 202 544 c 0
 202 507 229 449 255 429 c 1
 275 452 292 508 292 544 c 0
 292 577 275 622 247 622 c 0xd980
EndSplineSet
LCarets2: 2 0 0
Substitution2: "Single Substitution lookup 828 subtable" uni0915094D0937.short
Ligature2: "'akhn' Akhand lookup 758 subtable" uni0915 uni094D uni0937
EndChar

StartChar: uni0915094D0937.short
Encoding: 1114117 -1 91
Width: 753
GlyphClass: 2
Flags: W
HStem: 2 51<206.767 299.957> 300 68<338.491 493.068> 582 98<461.695 550 655 780.988> 622 51<214.146 275.868>
VStem: 80 122<472.464 609.139> 80 96<112.781 235.711> 283 130<117.707 213.792> 292 121<464.036 609.444> 549 106<-39.3274 327 408.98 582>
AnchorPoint: "Anchor-7" 446 -181 basechar 0
AnchorPoint: "Anchor-6" 630 -47 basechar 0
AnchorPoint: "Anchor-1" 606 680 basechar 0
AnchorPoint: "Anchor-0" 606 680 basechar 0
LayerCount: 2
Fore
SplineSet
798 582 m 6xe980
 655 582 l 5
 658 -53 l 6
 658 -68 639 -103 608 -73 c 4
 598 -64 547 -27 547 0 c 6
 549 327 l 5
 508 306 472 300 447 300 c 4
 408 300 337 307 286 342 c 5
 226 309 176 210 176 167 c 4
 176 115 200 53 252 53 c 4
 273 53 315 83 322 94 c 5
 292 118 283 154 283 164 c 4
 283 209 320 232 349 232 c 4
 385 232 413 201 413 171 c 4
 413 153 404 132 394 117 c 5
 406 79 476 0 476 -28 c 4
 476 -58 453 -74 425 -74 c 4
 406 -74 368 -21 344 22 c 5
 307 4 279 2 253 2 c 4
 135 2 80 133 80 203 c 4xe680
 80 274 145 337 194 385 c 5
 142 417 80 471 80 544 c 4
 80 612 144 673 247 673 c 4xd880
 319 673 413 637 413 544 c 4
 413 499 377 423 338 379 c 5
 357 371 386 368 405 368 c 4
 454 368 505 390 549 424 c 5
 550 582 l 5
 482 582 l 6
 445 582 356 680 437 680 c 6
 753 680 l 6
 764 680 781 668 781 668 c 5
 821 630 l 6
 849 603 824 582 798 582 c 6xe980
247 622 m 4xd980
 209 622 202 574 202 544 c 4
 202 507 229 449 255 429 c 5
 275 452 292 508 292 544 c 4
 292 577 275 622 247 622 c 4xd980
EndSplineSet
EndChar

StartChar: uni091C094D091E
Encoding: 1114118 -1 92
Width: 707
GlyphClass: 2
Flags: W
HStem: -99 112<251.893 383.607> 109 45<200 226.823> 113 130<71.5095 148.813> 403 98<292 504> 582 98<-20.3055 505 609 734.988>
VStem: 43 144<155.132 214.392> 271 125<204.821 332.616> 504 105<-41.1935 403 501 582>
AnchorPoint: "Anchor-7" 314 -132 basechar 0
AnchorPoint: "Anchor-6" 584 -52 basechar 0
AnchorPoint: "Anchor-1" 562 680 basechar 0
AnchorPoint: "Anchor-0" 562 680 basechar 0
LayerCount: 2
Fore
SplineSet
200 109 m 1xdf
 215 64 250 13 312 13 c 0
 326 13 339 19 352 19 c 0
 372 19 399 -26 399 -50 c 0
 399 -88 335 -99 317 -99 c 0
 201 -99 167 38 143 113 c 1
 95 113 43 139 43 183 c 0
 43 226 85 243 111 243 c 0xbf
 152 243 182 202 187 170 c 0
 187.690394397 165.58147586 188 159 187 154 c 1
 225 154 271 225 271 274 c 0
 271 326 249 376 189 404 c 1
 137 453 l 2
 109 480 134 501 160 501 c 2
 504 501 l 1
 504 540 504 566 505 582 c 1
 0 582 l 2
 -37 582 -126 680 -45 680 c 2
 707 680 l 2
 718 680 735 668 735 668 c 1
 775 630 l 2
 803 603 778 582 752 582 c 2
 609 582 l 1
 612 -54 l 2
 612 -69 593 -104 562 -73 c 0
 552 -64 501 -28 501 -1 c 2
 504 403 l 1
 292 403 l 1
 357 376 396 314 396 263 c 0
 396 164 278 112 200 109 c 1xdf
EndSplineSet
LCarets2: 2 0 0
Ligature2: "'akhn' Akhand lookup 758 subtable" uni091C uni094D uni091E
EndChar

StartChar: uni097B
Encoding: 2427 2427 93
Width: 604
GlyphClass: 2
Flags: W
HStem: -82 98<57.6945 463.988> 582 98<-20.3055 142.986 209 405 510 635.988>
VStem: 159 106<283.923 476.782> 402 111<-37.9976 582>
AnchorPoint: "Anchor-6" 485 -80 basechar 0
AnchorPoint: "Anchor-7" 282 -123 basechar 0
AnchorPoint: "Anchor-1" 461 680 basechar 0
AnchorPoint: "Anchor-0" 461 680 basechar 0
LayerCount: 2
Fore
SplineSet
481 -82 m 6
 78 -82 l 6
 41 -82 -48 16 33 16 c 6
 436 16 l 6
 447 16 464 4 464 4 c 5
 504 -34 l 6
 509 -39 526 -82 481 -82 c 6
EndSplineSet
Refer: 57 2327 N 1 0 0 1 0 0 2
EndChar

StartChar: uni097C
Encoding: 2428 2428 94
Width: 785
GlyphClass: 2
Flags: W
HStem: -82 98<80.6945 599.988> 80 109<264.203 385.976> 384 72<278.279 328.686 402 559> 582 98<-20.3055 560 664 789.988>
VStem: 14 81<370.459 421.711> 393 125<195.466 290.943> 559 105<-40.6467 384 456 582>
AnchorPoint: "Anchor-6" 619 -71 basechar 0
AnchorPoint: "Anchor-7" 404 -139 basechar 0
AnchorPoint: "Anchor-1" 599 680 basechar 0
AnchorPoint: "Anchor-0" 599 680 basechar 0
LayerCount: 2
Fore
SplineSet
618 -82 m 6
 101 -82 l 6
 64 -82 -25 16 56 16 c 6
 572 16 l 6
 583 16 600 4 600 4 c 5
 640 -34 l 6
 650 -43 652 -82 618 -82 c 6
EndSplineSet
Refer: 62 2332 N 1 0 0 1 0 0 2
EndChar

StartChar: uni097F
Encoding: 2431 2431 96
Width: 611
GlyphClass: 2
Flags: W
HStem: -81 98<121.695 470.988> 421 54<216.354 301.448> 582 98<-20.3055 409 513 638.988>
VStem: 56 125<187.526 310.891> 407 109<-39.7573 148 402 582>
AnchorPoint: "Anchor-6" 485 -71 basechar 0
AnchorPoint: "Anchor-7" 313 -65 basechar 0
AnchorPoint: "Anchor-1" 465 680 basechar 0
AnchorPoint: "Anchor-0" 465 680 basechar 0
LayerCount: 2
Fore
SplineSet
488 -81 m 6
 142 -81 l 6
 105 -81 16 17 97 17 c 6
 443 17 l 6
 454 17 471 5 471 5 c 5
 508 -31 l 6
 511 -33 529 -81 488 -81 c 6
EndSplineSet
Refer: 78 2348 N 1 0 0 1 0 0 2
EndChar

StartChar: uni0979
Encoding: 2425 2425 97
Width: 762
GlyphClass: 2
Flags: W
HStem: -223 144<134.53 249.47> -75 144<30.5301 143.631 240.846 353.154> 80 109<264.203 385.976> 384 72<278.279 328.686 402 559> 582 98<-20.3055 560 664 789.988>
VStem: 13 148<-56.905 51.8581> 14 81<370.459 421.711> 117 150<-205.382 -96.9814> 223 148<-57.6759 52.5823> 393 125<195.466 290.943> 559 105<-40.6467 384 456 582>
AnchorPoint: "Anchor-7" 342 -226 basechar 0
AnchorPoint: "Anchor-6" 619 -44 basechar 0
AnchorPoint: "Anchor-1" 596 680 basechar 0
AnchorPoint: "Anchor-0" 596 680 basechar 0
LayerCount: 2
Fore
SplineSet
297 -75 m 0xf8e0
 249 -75 223 -47 223 -2 c 0
 223 43 250 69 297 69 c 0
 344 69 371 43 371 -2 c 0
 371 -47 345 -75 297 -75 c 0xf8e0
88 -75 m 0
 41 -75 13 -48 13 -2 c 0
 13 44 41 69 88 69 c 0
 136 69 161 43 161 -2 c 0xfc60
 161 -47 136 -75 88 -75 c 0
192 -223 m 0
 145 -223 117 -197 117 -151 c 0
 117 -106 145 -79 192 -79 c 0
 239 -79 267 -106 267 -151 c 0xf960
 267 -197 239 -223 192 -223 c 0
EndSplineSet
Refer: 62 2332 N 1 0 0 1 0 0 2
EndChar

StartChar: uni097A
Encoding: 2426 2426 98
Width: 608
GlyphClass: 2
Flags: W
HStem: 166 52<238.952 359.632> 582 98<-20.3055 158 252 406 510 635.988>
VStem: 159 82<389.749 534.474> 405 108<-41.0999 191 402 582>
AnchorPoint: "Anchor-8" 106 -12 basechar 0
AnchorPoint: "Anchor-7" 277 -65 basechar 0
AnchorPoint: "Anchor-6" 488 -58 basechar 0
AnchorPoint: "Anchor-1" 460 680 basechar 0
AnchorPoint: "Anchor-0" 460 680 basechar 0
LayerCount: 2
Fore
SplineSet
653 582 m 2
 510 582 l 1
 513 -53 l 2
 513 -65 496 -96 464 -74 c 0
 455 -65 402 -27 402 0 c 2
 405 191 l 1
 371 174 339 166 302 166 c 0
 169 166 40 326 40 355 c 0
 40 380 64 386 92 386 c 0
 98 386 104 385 109 385 c 0
 144 385 159 390 159 482 c 0
 159 502 158 549 158 582 c 1
 0 582 l 2
 -37 582 -126 680 -45 680 c 2
 608 680 l 2
 619 680 636 668 636 668 c 1
 676 630 l 2
 704 603 679 582 653 582 c 2
252 582 m 1
 405 402 l 1
 406 484 406 551 406 582 c 1
 252 582 l 1
237 492 m 1
 241 416 241 434 241 417 c 4
 241 369 201 339 174 328 c 1
 203 246 260 218 302 218 c 0
 344 218 378 246 399 296 c 1
 237 492 l 1
EndSplineSet
EndChar

StartChar: uni0978
Encoding: 2424 2424 99
Width: 586
GlyphClass: 2
Flags: W
HStem: 359 59<232.079 410.908> 583 97<-20.3055 126 230 613.988>
VStem: 123 108<418 583> 464 88<135.029 301.486>
AnchorPoint: "Anchor-7" 298 0 basechar 0
AnchorPoint: "Anchor-6" 389 -22 basechar 0
AnchorPoint: "Anchor-1" 345 680 basechar 0
AnchorPoint: "Anchor-0" 179 680 basechar 0
LayerCount: 2
Fore
SplineSet
552 197 m 0
 552 70.9360856333 475.539788261 -28 446 -28 c 0
 415 -28 372 8 372 28 c 0
 372 56 464 110 464 229 c 0
 464 302 410 359 351 359 c 2
 341 359 l 2
 188.384366636 359 234.989231996 334.940775979 221 258 c 0
 219 247 210 223 194 223 c 0
 156 223 54 333 54 381 c 0
 54 418 97 414 123 414 c 1
 123 470 125 547 126 583 c 5
 0 583 l 6
 -37 583 -126 680 -45 680 c 6
 586 680 l 6
 597 680 614 668 614 668 c 5
 654 630 l 6
 682 604 657 583 631 583 c 6
 230 583 l 1
 230 549 231 477 231 418 c 1
 351 418 l 2
 491 418 552 305 552 197 c 0
EndSplineSet
EndChar

StartChar: uni091D.NEP
Encoding: 1114119 -1 100
Width: 928
GlyphClass: 2
Flags: W
HStem: 355 57<404.177 538.529> 430 48<735.97 830.673> 583 98<459.695 542 646 955.988> 663 41<207.665 275.923>
VStem: 80 118<537.198 647.305> 309 95<477 617.598> 541 106<-41.0999 329.928 415 583> 870 76<242.596 381.311>
AnchorPoint: "Anchor-8" 306 -30 basechar 0
AnchorPoint: "Anchor-7" 586 -105 basechar 0
AnchorPoint: "Anchor-6" 626 -58 basechar 0
AnchorPoint: "Anchor-1" 593 680 basechar 0
AnchorPoint: "Anchor-0" 593 680 basechar 0
LayerCount: 2
Fore
SplineSet
310 414 m 1xef
 308 425 302 427 292 429 c 0
 204 446 80 499 80 586 c 0
 80 661 156 704 238 704 c 0xdf
 345 704 404 617 404 535 c 2
 404 412 l 1
 453 410 488 408 541 403 c 1
 542 479 542 550 542 583 c 1
 480 583 l 2
 443 583 354 681 435 681 c 2
 928 681 l 2
 939 681 956 669 956 669 c 1
 996 631 l 2
 1024 604 999 583 973 583 c 2
 646 583 l 1
 647 415 l 1
 679 445 726 478 779 478 c 0
 887 478 946 381 946 284 c 0
 946 172 853 60 821 60 c 0
 794 60 761 102 761 132 c 0
 761 171 870 218 870 312 c 0
 870 349 839 430 787 430 c 0
 739 430 684 359 647 298 c 1
 649 -53 l 2
 649 -65 632 -96 600 -74 c 0
 591 -65 538 -27 538 0 c 2
 541 353 l 1
 517 354 496 355 477 355 c 0
 381 355 374 339 374 307 c 0
 374 302 375 277 375 272 c 0
 375 251 375 221 342 221 c 0
 307 221 204 332 204 380 c 0
 204 418 284 414 310 414 c 1xef
308 555 m 2
 307 595 281 663 238 663 c 0
 201 663 198 612 198 586 c 0
 198 545 257 491 309 477 c 1
 308 555 l 2
EndSplineSet
EndChar

StartChar: uni0902
Encoding: 2306 2306 101
Width: 0
GlyphClass: 4
Flags: W
HStem: 706.5 149<-206.337 -89.4359>
VStem: -225 154<725.185 837.291>
AnchorPoint: "Anchor-13" -142 649 mark 0
AnchorPoint: "Anchor-4" -140 635 mark 0
AnchorPoint: "Anchor-0" -147 609 mark 0
LayerCount: 2
Fore
SplineSet
-147 706.5 m 0
 -198 706.5 -225 734.5 -225 781.5 c 0
 -225 828.5 -197 855.5 -147 855.5 c 0
 -98 855.5 -71 828.5 -71 781.5 c 0
 -71 734.5 -98 706.5 -147 706.5 c 0
EndSplineSet
Substitution2: "Single Substitution lookup 6 subtable" uni093A0902
Substitution2: "Single Substitution lookup 8 subtable" uni09470902
Substitution2: "Single Substitution lookup 10 subtable" uni09480902
Substitution2: "Single Substitution lookup 12 subtable" uni09450902
Substitution2: "Single Substitution lookup 13 subtable" uni09460902
Substitution2: "Single Substitution lookup 17 subtable" uni0930094D0902
Substitution2: "Single Substitution lookup 37 subtable" NullMark
EndChar

StartChar: uni0901
Encoding: 2305 2305 102
Width: 0
GlyphClass: 4
Flags: W
HStem: 683 64<-137.351 38.0911> 792 128<-92.2527 2.25272>
VStem: -109 128<808.747 903.253>
AnchorPoint: "Anchor-0" -26 624 mark 0
AnchorPoint: "Anchor-14" -26 623 mark 0
AnchorPoint: "Anchor-3" -26 623 mark 0
AnchorPoint: "Anchor-1" -26 623 mark 0
LayerCount: 2
Fore
SplineSet
-109 856 m 0
 -109 891 -80 920 -45 920 c 0
 -10 920 19 891 19 856 c 0
 19 821 -10 792 -45 792 c 0
 -80 792 -109 821 -109 856 c 0
-27 683 m 0
 -185 683 -297 791 -297 828 c 0
 -297 838 -287 855 -261 855 c 0
 -249 855 -239 849 -231 842 c 2
 -225 836 l 1
 -171 791 -135 747 -49 747 c 4
 79 747 112 859 149 859 c 0
 174 859 241 818 241 794 c 0
 241 754 96 683 -27 683 c 0
EndSplineSet
Substitution2: "Single Substitution lookup 796 subtable" uni0901.alt
Substitution2: "Single Substitution lookup 795 subtable" uni0901.alt
Substitution2: "Single Substitution lookup 38 subtable" NullMark
Substitution2: "Single Substitution lookup 18 subtable" uni0930094D0901
Substitution2: "Single Substitution lookup 14 subtable" uni09460901
Substitution2: "Single Substitution lookup 11 subtable" uni09480901
Substitution2: "Single Substitution lookup 9 subtable" uni09470901
Substitution2: "Single Substitution lookup 7 subtable" oeMatra_candrabindudeva
EndChar

StartChar: uni0903
Encoding: 2307 2307 103
Width: 252
Flags: W
HStem: 54 149<67.8391 187.811> 343 150<69.0261 186.611>
VStem: 50 156<72.2086 184.678 361.685 474.678>
LayerCount: 2
Fore
SplineSet
128 343 m 0
 78 343 50 371 50 418 c 0
 50 466 78 493 128 493 c 0
 177 493 206 466 206 418 c 0
 206 371 177 343 128 343 c 0
128 54 m 0
 78 54 50 81 50 128 c 0
 50 176 78 203 128 203 c 0
 177 203 206 176 206 128 c 0
 206 81 177 54 128 54 c 0
EndSplineSet
Substitution2: "Single Substitution lookup 210 subtable" NullMark
EndChar

StartChar: uni094D
Encoding: 2381 2381 104
Width: 0
GlyphClass: 4
Flags: W
AnchorPoint: "Anchor-12" 0 0 mark 0
AnchorPoint: "Anchor-9" 0 0 mark 0
AnchorPoint: "Anchor-6" 0 0 mark 0
LayerCount: 2
Fore
SplineSet
195 -311 m 5
 -10 -155 l 6
 -40 -133 -61 -145 -92 -152 c 4
 -102 -155 -113 -156 -125 -154 c 4
 -161 -146 -227 -121 -237 -100 c 4
 -237 -91 -234 -83 -219 -77 c 4
 -122 -40 -60 -24 24 -89 c 6
 271 -281 l 5
 195 -311 l 5
EndSplineSet
Substitution2: "Single Substitution lookup 244 subtable" uni094D0930094D
EndChar

StartChar: uni093C
Encoding: 2364 2364 105
Width: 0
GlyphClass: 4
Flags: W
HStem: -216 149<-335.337 -218.436>
VStem: -354 154<-197.315 -85.2086>
AnchorPoint: "Anchor-16" -277 -142 mark 0
AnchorPoint: "Anchor-11" -277 -266 basemark 0
AnchorPoint: "Anchor-11" -277 -142 mark 0
AnchorPoint: "Anchor-8" -277 -142 mark 0
LayerCount: 2
Fore
SplineSet
-276 -216 m 4
 -327 -216 -354 -188 -354 -141 c 4
 -354 -94 -326 -67 -276 -67 c 4
 -227 -67 -200 -94 -200 -141 c 4
 -200 -188 -227 -216 -276 -216 c 4
EndSplineSet
Substitution2: "Single Substitution lookup 245 subtable" uni094D0930093C
EndChar

StartChar: uni093D
Encoding: 2365 2365 106
Width: 465
Flags: W
HStem: 80 58<221.42 319.416> 583 97<198.207 426.051>
VStem: 55 125<470.094 565.721> 334 125<151.037 274.95>
LayerCount: 2
Fore
SplineSet
294 80 m 0
 109 80 44 233 44 259 c 0
 44 281 77 308 111 308 c 0
 156 308 162 138 286 138 c 4
 316 138 334 175 334 225 c 0
 334 330 55 387 55 541 c 0
 55 605 109 680 218 680 c 2
 330 680 l 2
 434 680 458 634 458 612 c 0
 458 599 446 583 330 583 c 2
 265 583 l 2
 187 583 180 541 180 515 c 0
 180 450 245 410 296 382 c 0
 358 348 459 302 459 225 c 0
 459 136 406 80 294 80 c 0
EndSplineSet
EndChar

StartChar: uni097D
Encoding: 2429 2429 107
Width: 572
Flags: W
HStem: 622 67<221.15 368.311>
VStem: 239 112<-17.984 208.903 209 226.87 227 254.602> 432 125<396.613 556.969>
LayerCount: 2
Fore
SplineSet
239 -18 m 1
 351 -18 l 1
 351 -18 351 4 350 7 c 0
 350 75 348 209 348 209 c 2
 348 255 412 284 446 304 c 0
 501 335 557 379 557 461 c 0
 557 593 449 689 290 689 c 0
 145 689 55 586 55 557 c 0
 55 528 97 504 126 504 c 0
 171 504 182 622 290 622 c 0
 375 622 432 564 432 491 c 0
 432 430 423 390 361 349 c 0
 319 320 242.698004464 284.003697905 242 227 c 2
 242 227 239 48 239 -18 c 1
EndSplineSet
EndChar

StartChar: uni0971
Encoding: 2417 2417 108
Width: 338
Flags: W
HStem: 579.2 127.6<136.14 231.98>
VStem: 125.65 117.699<590.442 696.702>
AnchorPoint: "Anchor-0" 184 538 mark 0
LayerCount: 2
Fore
SplineSet
243.349609375 643 m 4
 243.349609375 601.200195312 221.349609375 579.200195312 183.950195312 579.200195312 c 4
 145.450195312 579.200195312 125.650390625 600.099609375 125.650390625 643 c 4
 125.650390625 687 144.349609375 706.799804688 183.950195312 706.799804688 c 4
 223.549804688 706.799804688 243.349609375 687 243.349609375 643 c 4
EndSplineSet
EndChar

StartChar: uni0951
Encoding: 2385 2385 109
Width: 0
GlyphClass: 4
Flags: W
VStem: -193 111<727.608 1030.39>
AnchorPoint: "Anchor-13" -91 680 mark 0
AnchorPoint: "Anchor-4" -91 680 mark 0
AnchorPoint: "Anchor-0" -91 680 mark 0
LayerCount: 2
Fore
SplineSet
-131 693 m 4
 -140 701 -193 737 -193 763 c 6
 -193 1046 l 6
 -193 1057 -176 1086 -144 1065 c 4
 -135 1057 -82 1021 -82 995 c 6
 -82 712 l 6
 -82 701 -99 672 -131 693 c 4
EndSplineSet
Substitution2: "Single Substitution lookup 862 subtable" uni0951.iirephc
Substitution2: "Single Substitution lookup 861 subtable" uni0951.iireph
Substitution2: "Single Substitution lookup 860 subtable" uni0951.iicandra
Substitution2: "Single Substitution lookup 859 subtable" uni0951.iireph
Substitution2: "Single Substitution lookup 858 subtable" uni0951.ii
Substitution2: "Single Substitution lookup 823 subtable" uni0951.iirephc
Substitution2: "Single Substitution lookup 822 subtable" uni0951.iicandra
Substitution2: "Single Substitution lookup 821 subtable" uni0951.alt
Substitution2: "Single Substitution lookup 820 subtable" uni0951.alt2
Substitution2: "Single Substitution lookup 819 subtable" uni0951.alt2
Substitution2: "Single Substitution lookup 818 subtable" uni0951.alt
Substitution2: "Single Substitution lookup 817 subtable" uni0951.alt
Substitution2: "Single Substitution lookup 816 subtable" uni0951.alt
Substitution2: "Single Substitution lookup 815 subtable" uni0951.alt
Substitution2: "Single Substitution lookup 814 subtable" uni0951.iirephc
Substitution2: "Single Substitution lookup 813 subtable" uni0951.alt3
Substitution2: "Single Substitution lookup 812 subtable" uni0951.alt2
Substitution2: "Single Substitution lookup 811 subtable" uni0951.alt1
Substitution2: "Single Substitution lookup 810 subtable" uni0951.alt2
Substitution2: "Single Substitution lookup 809 subtable" uni0951.alt
Substitution2: "Single Substitution lookup 808 subtable" uni0951.alt
Substitution2: "Single Substitution lookup 807 subtable" uni0951.alt3
Substitution2: "Single Substitution lookup 806 subtable" uni0951.alt3
Substitution2: "Single Substitution lookup 805 subtable" uni0951.alt3
Substitution2: "Single Substitution lookup 804 subtable" uni0951.iicandra
Substitution2: "Single Substitution lookup 803 subtable" uni0951.alt3
Substitution2: "Single Substitution lookup 802 subtable" uni0951.alt1
Substitution2: "Single Substitution lookup 801 subtable" uni0951.alt1
MultipleSubs2: "Multiple Substitution lookup 209 subtable" uni0951 uni0903
EndChar

StartChar: uni0952
Encoding: 2386 2386 110
Width: 0
GlyphClass: 4
Flags: W
HStem: -186 98<-462.305 -56.0124>
AnchorPoint: "Anchor-15" -271 0 mark 0
AnchorPoint: "Anchor-10" -271 0 mark 0
AnchorPoint: "Anchor-7" -271 0 mark 0
LayerCount: 2
Fore
SplineSet
-39 -186 m 2
 -442 -186 l 2
 -479 -186 -568 -88 -487 -88 c 2
 -84 -88 l 2
 -73 -88 -56 -99 -56 -99 c 1
 -16 -138 l 2
 12 -165 -13 -186 -39 -186 c 2
EndSplineSet
Substitution2: "Single Substitution lookup 848 subtable" uni0952.alt3
Substitution2: "Single Substitution lookup 847 subtable" uni0952.alt3
Substitution2: "Single Substitution lookup 845 subtable" uni0952.alt2
Substitution2: "Single Substitution lookup 844 subtable" uni0952.alt2
Substitution2: "Single Substitution lookup 842 subtable" uni0952.alt1
Substitution2: "Single Substitution lookup 841 subtable" uni0952.alt1
Substitution2: "Single Substitution lookup 839 subtable" uni0952.alt
Substitution2: "Single Substitution lookup 838 subtable" uni0952.alt
Substitution2: "Single Substitution lookup 837 subtable" uni0952.alt
Substitution2: "Single Substitution lookup 836 subtable" uni0952.alt
MultipleSubs2: "Multiple Substitution lookup 209 subtable" uni0952 uni0903
EndChar

StartChar: uni0953
Encoding: 2387 2387 111
Width: 0
GlyphClass: 4
Flags: W
LayerCount: 2
Fore
SplineSet
-130 939 m 1
 -129 938 -126.663836647 933.105964535 -126 931 c 2
 -68 747 l 1
 -109 730 l 1
 -263 874 l 1
 -290 908 -249.892191936 933.742706451 -221 946 c 0
 -188 960 -149 969 -130 939 c 1
EndSplineSet
EndChar

StartChar: uni0954
Encoding: 2388 2388 112
Width: 0
GlyphClass: 4
Flags: W
LayerCount: 2
Fore
SplineSet
9 878 m 1
 29 908 -2.78951624949 931.486461439 -37 946 c 0
 -70 960 -109 969 -128 939 c 0
 -130 938 -132 934 -133 929 c 2
 -190 747 l 1
 -149 730 l 1
 9 878 l 1
EndSplineSet
EndChar

StartChar: uni0900
Encoding: 2304 2304 113
Width: 0
GlyphClass: 4
Flags: W
HStem: 675 128<-110.253 -15.7473> 841 65<-153.351 22.0911>
VStem: -127 128<691.747 786.253>
AnchorPoint: "Anchor-14" 0 623 mark 0
AnchorPoint: "Anchor-3" 0 623 mark 0
AnchorPoint: "Anchor-1" 0 623 mark 0
LayerCount: 2
Fore
SplineSet
-127 739 m 0
 -127 774 -98 803 -63 803 c 0
 -28 803 1 774 1 739 c 0
 1 704 -28 675 -63 675 c 0
 -98 675 -127 704 -127 739 c 0
133 729 m 0
 96 729 63 841 -65 841 c 4
 -151 841 -187 797 -241 752 c 1
 -247 746 l 2
 -255 739 -265 733 -277 733 c 0
 -303 733 -313 750 -313 760 c 0
 -313 798 -201 906 -43 906 c 0
 80 906 225 834 225 794 c 0
 225 770 158 729 133 729 c 0
EndSplineSet
EndChar

StartChar: uni0966
Encoding: 2406 2406 114
Width: 487
GlyphClass: 2
Flags: W
HStem: 149 86<173.39 302.38> 455 86<191.666 326.682>
VStem: 27 107<277.881 398.371> 358 102<288.82 413.428>
AnchorPoint: "Anchor-7" 197 83 basechar 0
AnchorPoint: "Anchor-0" 241 577 basechar 0
LayerCount: 2
Fore
SplineSet
274 149 m 4
 167 149 27 231 27 363 c 4
 27 473 123 541 227 541 c 4
 352 541 460 444 460 324 c 4
 460 215 370 149 274 149 c 4
261 455 m 4
 191 455 134 398 134 329 c 4
 134 256 161 235 227 235 c 4
 302 235 358 288 358 356 c 4
 358 420 333 455 261 455 c 4
EndSplineSet
EndChar

StartChar: uni0967
Encoding: 2407 2407 115
Width: 409
GlyphClass: 2
Flags: W
HStem: 631 49<179.819 249.245>
VStem: 37 125<478.501 614.564> 243 112<73.791 128.965> 262 107<467.52 596.382>
AnchorPoint: "Anchor-7" 284 -7 basechar 0
AnchorPoint: "Anchor-0" 250 720 basechar 0
LayerCount: 2
Fore
SplineSet
296 366 m 0xd0
 260 327 200 292 160 257 c 1
 244 226 355 131 355 81 c 0
 355 47 325 -25 283 -25 c 0
 259 -25 195 3 195 40 c 0
 195 63 243 80 243 103 c 0xe0
 243 152 81 220 44 239 c 1
 44 265 l 1
 183 393 l 1
 107 424 37 464 37 552 c 0
 37 632 129 680 201 680 c 0
 299 680 369 604 369 514 c 0
 369 461 336 411 296 366 c 0xd0
222 631 m 0
 178 631 162 587 162 543 c 0
 162 503 186 447 219 427 c 1
 239 456 262 513 262 561 c 0xd0
 262 589 246 631 222 631 c 0
EndSplineSet
EndChar

StartChar: uni0968
Encoding: 2408 2408 116
Width: 481
GlyphClass: 2
Flags: W
HStem: -25 112<311.408 410.176> 265.99 50.913<191.347 271.335> 634 46<176.91 264.357>
VStem: 56 137<317.698 383.285> 317 125<376.763 561.027>
AnchorPoint: "Anchor-7" 212 -17 basechar 0
AnchorPoint: "Anchor-0" 218 711 basechar 0
LayerCount: 2
Fore
SplineSet
227.909178439 316.90317583 m 0
 286.237140778 316.90317583 317 403.271220608 317 486 c 0
 317 554 273 634 218 634 c 0
 159 634 143 526 104 526 c 0
 75 526 44 593 44 607 c 0
 44 626 116 680 218 680 c 0
 325 680 442 597 442 477 c 0
 442 340.90186261 343.312254243 265.990127589 235.151424967 265.990127589 c 0
 225.378588987 265.990127589 201.234655763 269.485560099 188 275 c 1
 212 165 326 87 353 87 c 0
 368 87 373 88 383 88 c 0
 404 88 423 47 423 24 c 0
 423 -16 394 -25 350 -25 c 0
 247 -25 141 145 121 284 c 1
 86 299 56 318 56 360 c 0
 56 397.428017466 84.3338017303 416.522398518 112.853853567 416.522398518 c 0
 170.469475774 416.522398518 184.868219452 359.609485034 193 322 c 1
 201.976788934 319.30696332 213.380803345 316.90317583 227.909178439 316.90317583 c 0
EndSplineSet
EndChar

StartChar: uni0969
Encoding: 2409 2409 117
Width: 481
GlyphClass: 2
Flags: W
HStem: -25 102<259.218 394.474> 121 47<212.172 279.558> 382 74<166.319 260.143> 634 46<158.91 244.443>
VStem: 273 125<464.912 599.506> 300 125<187.827 341.616>
AnchorPoint: "Anchor-7" 248 -99 basechar 0
AnchorPoint: "Anchor-0" 203 687 basechar 0
LayerCount: 2
Fore
SplineSet
134.218539221 278.239043951 m 0xf4
 212.544710685 278.239043951 184.993479817 168 249 168 c 0
 278 168 300 220 300 264 c 0xf4
 300 374 265 382 248 382 c 0
 204 382 168 354 133 354 c 0
 109 354 93 393 93 406 c 0
 93 434 156 456 238 456 c 0
 239 456 273 468 273 533 c 0
 273 574 248 634 200 634 c 0
 141 634 125 526 86 526 c 0
 57 526 26 593 26 607 c 0
 26 626 98 680 200 680 c 0
 295 680 398 622 398 533 c 0xf8
 398 477 368 441 339 420 c 1
 408 372 425 288 425 254 c 0
 425 153 328 121 249 121 c 0
 227.875484503 121 204 130 204 130 c 1
 235 95 273 77 316 77 c 0
 338 77 358 88 379 88 c 0
 400 88 419 47 419 24 c 0
 419 -16 390 -25 346 -25 c 0
 248 -25 181 47 141 138 c 1
 104 153 72 172 72 215 c 0
 72 258.427662677 108.540932351 278.239043951 134.218539221 278.239043951 c 0xf4
EndSplineSet
EndChar

StartChar: uni096A
Encoding: 2410 2410 118
Width: 646
GlyphClass: 2
Flags: W
HStem: -2 50<306.949 371.923>
VStem: 169 116<77.8365 255.458> 395 113<75.0178 237.077>
AnchorPoint: "Anchor-7" 339 -16 basechar 0
AnchorPoint: "Anchor-0" 322 680 basechar 0
LayerCount: 2
Fore
SplineSet
610 569 m 0
 536 500 460 432 392 357 c 1
 448 304 508 231 508 150 c 0
 508 60 427 -2 339 -2 c 0
 221 -2 169 84 169 159 c 0
 169 224 195 291 270 369 c 1
 218.015617131 420.984382869 53.5671342668 561.432865733 12 603 c 0
 6 609 5 614 5 619 c 0
 5 639 39 669 68 669 c 0
 76 669 242 491 327 400 c 1
 392 476 565 670 570 670 c 0
 583 670 642 645 642 610 c 0
 642 607 632 590 610 569 c 0
341 307 m 5
 318 278 285 235 285 159 c 0
 285 99 306 48 339 48 c 0
 372 48 395 98 395 159 c 0
 395 216 374 267 341 307 c 5
EndSplineSet
EndChar

StartChar: uni096B
Encoding: 2411 2411 119
Width: 523
GlyphClass: 2
Flags: W
HStem: 172 50<194.194 290.243>
VStem: 14 126<305.263 507.183> 281 135<316.146 390.202> 430 85<123.91 239.684>
AnchorPoint: "Anchor-7" 391 -6 basechar 0
AnchorPoint: "Anchor-0" 248 673 basechar 0
LayerCount: 2
Fore
SplineSet
456 9 m 0
 448 -2 436 -13 418 -13 c 0
 394 -13 349 16 349 45 c 0
 349 75 430 122 430 171 c 0
 430 199 421 251 402 274 c 1
 356 195 278 172 238 172 c 0
 137 172 14 251 14 410 c 0
 14 555 166 679 213 679 c 1
 213 679 254 670 254 647 c 4
 254 637 253 629 240 624 c 4
 206 611 140 504 140 410 c 0
 140 280 199 222 238 222 c 0
 279 222 315 260 329 296 c 1
 322 301 l 2
 300 315 281 333 281 361 c 0
 281 394 309 426 345 426 c 0
 372 426 393 406 402 391 c 0
 413 374 415 355 416 334 c 1
 466 288 515 229 515 160 c 0
 515 100 484 42 456 9 c 0
EndSplineSet
Substitution2: "'locl' Localized Forms lookup 755 subtable" uni096B.NEP
EndChar

StartChar: uni096C
Encoding: 2412 2412 120
Width: 464
GlyphClass: 2
Flags: W
HStem: 352 73<189.689 311.874> 629 51<174.386 251.778>
VStem: 12 126<442.375 589.507> 38 125<151.552 319.702> 281 130<114.258 212.34>
AnchorPoint: "Anchor-7" 341 -63 basechar 0
AnchorPoint: "Anchor-0" 230 703 basechar 0
LayerCount: 2
Fore
SplineSet
408 -46 m 0xd8
 377 -46 336 41 323 67 c 1
 297 54 261 49 235 49 c 0
 192 49 38 76 38 232 c 0xd8
 38 266 51 328 98 372 c 1
 53 408 12 460 12 509 c 0
 12 618 115 680 206 680 c 0
 308 680 383 626 383 607 c 0
 383 593 352 526 323 526 c 0
 284 526 268 629 209 629 c 0
 178 629 138 573 138 514 c 0xe8
 138 478 148 436 160 413 c 1
 184 421 208 425 238 425 c 0
 299 425 335 408 335 375 c 0
 335 360 323 334 302 334 c 0
 282 334 263 352 235 352 c 0
 174 352 163 276 163 234 c 0
 163 139 224.500071736 104.555539614 245 100 c 0
 281 92 300 102 306 109 c 1
 290 125 281 141 281 163 c 4
 281 207 318 231 347 231 c 0
 383 231 411 199 411 169 c 0
 411 151 402 122 378 104 c 1
 388 73 459 23 459 0 c 0
 459 -30 436 -46 408 -46 c 0xd8
EndSplineSet
EndChar

StartChar: uni096D
Encoding: 2413 2413 121
Width: 685
GlyphClass: 2
Flags: W
HStem: 29 118<344.854 499.41> 572 51<428.14 496.34>
VStem: 0 72<521.718 656.947> 302 112.431<431.858 556.776> 564 101<326.316 455.38>
AnchorPoint: "Anchor-7" 318 0 basechar 0
AnchorPoint: "Anchor-0" 334 613 basechar 0
LayerCount: 2
Fore
SplineSet
418 29 m 0
 156 29 0 519 0 628 c 0
 0 651 17 661 33 661 c 4
 54 661 67 648 72 614 c 0
 103 380 275 147 418 147 c 0
 485 147 556 185 564 279 c 1
 429 288 302 378 302 479 c 0
 302 586 395 623 463 623 c 0
 609 623 665 482 665 379 c 0
 665 145 531 29 418 29 c 0
463 572 m 0
 436.949888732 572 414.430517823 545.87252134 414.430517823 504.298668704 c 0
 414.430517823 442.701708962 476.729122721 338.064030821 566 325 c 1
 559 453 508 572 463 572 c 0
EndSplineSet
EndChar

StartChar: uni096E
Encoding: 2414 2414 122
Width: 454
GlyphClass: 2
Flags: W
HStem: 0 51<181.678 307.714>
VStem: 12 115<111.161 261.722>
AnchorPoint: "Anchor-7" 256 0 basechar 0
AnchorPoint: "Anchor-0" 308 712 basechar 0
LayerCount: 2
Fore
SplineSet
249 0 m 0
 95 0 12 68 12 194 c 0
 12 241 42 309 100 384 c 0
 157 459 253 582 326 660 c 0
 333 668 343 670 350 670 c 0
 379 670 415 638 422 613 c 1
 249 420 127 266 127 194 c 0
 127 143 154 51 249 51 c 0
 295 51 327 85 354 118 c 0
 361 126 368 136 380 136 c 0
 409 136 442 101 442 77 c 0
 442 54 345 0 249 0 c 0
EndSplineSet
Substitution2: "'locl' Localized Forms lookup 755 subtable" uni096E.NEP
EndChar

StartChar: uni096F
Encoding: 2415 2415 123
Width: 404
GlyphClass: 2
Flags: W
HStem: 621 59<147.681 212.055>
VStem: 12 112<433.798 595.94> 230 116<437.271 598.844> 289 103<88.2926 164.375>
AnchorPoint: "Anchor-7" 196 0 basechar 0
AnchorPoint: "Anchor-0" 181 694 basechar 0
LayerCount: 2
Fore
SplineSet
267 -17 m 0xd0
 242 -17 196 43 196 66 c 0
 196 106 289 64 289 110 c 4xd0
 289 211 12 350 12 518 c 0
 12 617 92 680 175 680 c 0
 273 680 346 608 346 518 c 0xe0
 346 443 286 373 231 326 c 1
 298 271 392 193 392 117 c 0
 392 27 288 -17 267 -17 c 0xd0
180 621 m 0
 159 621 124 587 124 509 c 0
 124 460 149 411 175 380 c 1
 203 409 230 470 230 524 c 0xe0
 230 598 203 621 180 621 c 0
EndSplineSet
Substitution2: "'locl' Localized Forms lookup 755 subtable" uni096F.NEP
EndChar

StartChar: uni096B.NEP
Encoding: 1114120 -1 124
Width: 614
GlyphClass: 2
Flags: W
HStem: -10 67<278 321.174> 190 52<203.176 337.236> 656 20G<196 235>
VStem: 33 125<313.181 494.236> 58 134<50.7798 123.955>
AnchorPoint: "Anchor-7" 277 -165 basechar 0
AnchorPoint: "Anchor-0" 381 680 basechar 0
LayerCount: 2
Fore
SplineSet
278 -10 m 1xf0
 344 -63 424 -115 424 -118 c 0
 424 -145 311 -190 298 -147 c 1
 273 -97 224 -34 178 -4 c 0
 147 16 58 46 58 84 c 0
 58 126 101 149 138 149 c 0
 169 149 188 90 192 58 c 1xe8
 218 40 242 57 274 57 c 0
 345 57 379 153 390 220 c 1
 357 202 313 190 254 190 c 0
 152 190 33 278 33 395 c 0
 33 542 183 676 209 676 c 0
 261 676 268 664 268 639 c 0
 268 611 158 561 158 395 c 0
 158 318 189 242 254 242 c 0
 335 242 406 305 446 360 c 0
 447 363 447 366 447 370 c 2
 438 428 l 2
 431.294214932 471.215059329 472 484 504 484 c 0
 534 484 584 467 584 422 c 0
 584 390 540 361 523 335 c 1
 520 258 439 -7 278 -10 c 1xf0
EndSplineSet
EndChar

StartChar: uni096E.NEP
Encoding: 1114121 -1 125
Width: 554
GlyphClass: 2
Flags: W
HStem: -7 70<380.603 448.969> 185 50<248.247 321.66> 292 70<407.005 474.708> 583 97<59.6945 174 279.791 543.988>
VStem: 94 125<281.872 476.617> 492 106<124.306 275.937>
AnchorPoint: "Anchor-7" 300 0 basechar 0
AnchorPoint: "Anchor-0" 260 680 basechar 0
LayerCount: 2
Fore
SplineSet
420 -7 m 0
 396 -7 375 9 375 37 c 0
 375 54 396 58 409 63 c 0
 473 83 492 136 492 206 c 0
 492 281 450 292 439 292 c 0
 400 292 372 185 290 185 c 0
 101 185 94 343 94 385 c 0
 94 458 136 522 174 583 c 1
 80 583 l 2
 43 583 -46 680 35 680 c 2
 516 680 l 2
 527 680 544 668 544 668 c 1
 584 630 l 2
 612 604 587 583 561 583 c 2
 291 583 l 1
 241 490 219 426 219 385 c 0
 219 341 224 235 290 235 c 0
 330 235 377 362 459 362 c 0
 524 362 598 323 598 206 c 0
 598 71 433 -7 420 -7 c 0
EndSplineSet
EndChar

StartChar: uni096F.NEP
Encoding: 1114122 -1 126
Width: 554
GlyphClass: 2
Flags: W
HStem: 185 80<195.854 278.883> 310 52<372.197 430.98> 466 41<296.849 402.748>
VStem: 44 125<289.957 475.284> 446.637 101.363<141.396 294.549>
AnchorPoint: "Anchor-7" 276 0 basechar 0
AnchorPoint: "Anchor-0" 276 680 basechar 0
LayerCount: 2
Fore
SplineSet
356 507 m 0
 468.304419947 507 398.828331991 679 459 679 c 0
 491 679 525 651 525 629 c 0
 525 612 520 466 332 466 c 0
 281 466 235 481 200 498 c 1
 179 449 169 412 169 385 c 0
 169 341 174 265 240 265 c 0
 280 265 327 362 409 362 c 0
 474 362 548 323 548 206 c 0
 548 71 383 -7 370 -7 c 0
 346 -7 326 7 326 35 c 4
 326 60.1201171875 446.636798762 84.5357526382 446.636798762 239.644082827 c 0
 446.636798762 288.061750679 412.905249722 310 395 310 c 0
 373.19 310 322 185 240 185 c 0
 51 185 44 343 44 385 c 0
 44 471 104 549 147 620 c 1
 249 620 l 1
 249 560 298 507 356 507 c 0
EndSplineSet
EndChar

StartChar: uni0950
Encoding: 2384 2384 127
Width: 1002
Flags: W
HStem: 81 51<207.131 311.046> 246 48<759.289 842.65> 359 75<176.431 309.209> 577 53<760.954 846.93> 612 72<458.529 630.715> 637 51<203.659 300.197> 729 136<501.178 608.252>
VStem: 40 129<202.44 295.543> 341 125<462.258 592.901> 342 135<166.819 261.638> 486 137<743.318 849.822> 879 125<340.997 533.704>
LayerCount: 2
Fore
SplineSet
555 729 m 0xe330
 512 729 486 753 486 796 c 0
 486 839 511 865 555 865 c 0
 598 865 623 839 623 796 c 0
 623 753 598 729 555 729 c 0xe330
573 612 m 0xeb70
 417 612 307 727 307 769 c 0
 307 780 316 798 342 798 c 0
 365 798 398 749 412 737 c 0
 454 702 494 684 552 684 c 0
 630.778593949 684 667.269105224 733.269105224 716 782 c 0
 724 791 732 803 747 803 c 0
 770 803 837 759 837 732 c 0
 837 688 694 612 573 612 c 0xeb70
811 246 m 0
 730 246 677 284 633 342 c 1
 604 306 542 270 476 261 c 1
 477 256 477 232 477 228 c 0
 477 104 337 81 272 81 c 0
 207 81 150 102 107 145 c 0
 59 192 40 237 40 267 c 0
 40 301 93 331 116 331 c 0
 160 331 148 234 169 194 c 0
 188.063857722 157.687890054 233 132 272 132 c 0
 304 132 342 184 342 228 c 0xf770
 342 292 333 343 307 365 c 1
 288 360 271 359 255 359 c 0
 155 359 130 378 130 432 c 0
 130 450 141 459 156 459 c 0
 189 459 212 434 245 434 c 0
 292 434 341 458 341 522 c 0
 341 569 307 637 250 637 c 0
 180 637 168 533 130 533 c 0
 101 533 70 601 70 615 c 0
 70 633 149 688 250 688 c 0
 358 688 466 620 466 522 c 0
 466 452 433 410 388 386 c 1
 416 362 436 337 450 315 c 1
 491 329 549 436 573 475 c 0
 631 564 685 630 811 630 c 0xf7b0
 922 630 1004 560 1004 439 c 0
 1004 318 925 246 811 246 c 0
807 577 m 0
 751 577 705 481 678 424 c 1
 693 376 762 294 807 294 c 0
 851 294 879 372 879 439 c 0
 879 510 854 577 807 577 c 0
EndSplineSet
EndChar

StartChar: uni0970
Encoding: 2416 2416 128
Width: 427
VWidth: 920
Flags: W
HStem: 153 75<166.105 261.257> 362 75<166.105 261.257>
VStem: 73 74<246.605 343.395> 281 76<246.605 343.395>
LayerCount: 2
Back
SplineSet
237 155 m 0
 158 155 54 213 54 308 c 0
 54 388 127 437 204 437 c 0
 297 437 377 368 377 282 c 0
 377 202 309 155 237 155 c 0
227 359 m 0
 186 359 151 327 151 286 c 0
 151 239 162 233 205 233 c 4
 250 233 284 264 284 303 c 0
 284 345 273 359 227 359 c 0
EndSplineSet
Fore
SplineSet
147 295 m 0
 147 259 178 228 214 228 c 0
 250 228 281 259 281 295 c 0
 281 331 250 362 214 362 c 0
 178 362 147 331 147 295 c 0
73 295 m 0
 73 373 137 437 215 437 c 0
 293 437 357 373 357 295 c 0
 357 217 293 153 215 153 c 0
 137 153 73 217 73 295 c 0
EndSplineSet
EndChar

StartChar: uni0964
Encoding: 2404 2404 129
Width: 311
Flags: W
VStem: 100 111<14.3254 735.675>
LayerCount: 2
Fore
SplineSet
161 -21 m 4
 151 -11 100 25 100 52 c 6
 100 751 l 6
 100 766 119 801 150 771 c 4
 160 761 211 725 211 698 c 6
 211 -1 l 6
 211 -16 192 -51 161 -21 c 4
EndSplineSet
EndChar

StartChar: uni1CD0
Encoding: 7376 7376 131
Width: 0
GlyphClass: 4
Flags: W
HStem: 1115 270
LayerCount: 2
Fore
SplineSet
-2 1115 m 1
 -182 1262 l 1
 -370 1115 l 1
 -425 1163 l 1
 -205 1385 l 1
 37 1151 l 1
 -2 1115 l 1
EndSplineSet
EndChar

StartChar: uni1CD1
Encoding: 7377 7377 132
Width: 0
GlyphClass: 4
Flags: W
VStem: -231 111<1025.61 1185.39>
LayerCount: 2
Fore
SplineSet
-2 1132 m 5
 -182 1286 l 5
 -370 1132 l 5
 -425 1183 l 5
 -205 1415 l 5
 37 1170 l 5
 -2 1132 l 5
-169 991 m 0
 -178 999 -231 1035 -231 1061 c 2
 -231 1201 l 2
 -231 1212 -214 1241 -182 1220 c 0
 -173 1212 -120 1176 -120 1150 c 2
 -120 1010 l 2
 -120 999 -137 970 -169 991 c 0
EndSplineSet
EndChar

StartChar: uni1CD2
Encoding: 7378 7378 133
Width: 0
GlyphClass: 4
Flags: W
HStem: 1194 63<-380.123 -30.0124>
LayerCount: 2
Fore
SplineSet
-13 1194 m 6
 -353 1194 l 6
 -390 1194 -479 1257 -398 1257 c 2
 -58 1257 l 2
 -47 1257 -30 1249 -30 1249 c 1
 10 1225 l 2
 38 1208 13 1194 -13 1194 c 6
EndSplineSet
EndChar

StartChar: uni1CD3
Encoding: 7379 7379 134
Width: 291
Flags: W
HStem: 719 259<47 110 187 249>
VStem: 10 277
LayerCount: 2
Fore
SplineSet
249 719 m 1
 151 719 l 1
 187 978 l 1
 287 978 l 1
 249 719 l 1
110 719 m 5
 10 719 l 5
 47 978 l 5
 147 978 l 5
 110 719 l 5
EndSplineSet
EndChar

StartChar: uni1CD4
Encoding: 7380 7380 135
Width: 0
GlyphClass: 4
Flags: W
HStem: 397 83<-164.25 138.994>
LayerCount: 2
Fore
SplineSet
-139 397 m 2
 -145 397 -147 398 -153 404 c 2
 -201 464 l 6
 -211 474 -208 480 -192 480 c 6
 125 480 l 6
 131 480 139 473 139 473 c 5
 187 413 l 2
 197 403 194 397 178 397 c 2
 -139 397 l 2
EndSplineSet
EndChar

StartChar: uni1CD6
Encoding: 7382 7382 137
Width: 0
GlyphClass: 4
Flags: W
HStem: -251 88<-380 -80.0124>
VStem: -491 111<-163 -58.0638>
AnchorPoint: "Anchor-15" -272 0 mark 0
AnchorPoint: "Anchor-10" -272 0 mark 0
AnchorPoint: "Anchor-7" -272 0 mark 0
LayerCount: 2
Fore
SplineSet
-63 -251 m 6
 -410 -251 l 6
 -436 -251 -466 -216 -478 -206 c 4
 -486 -199 -491 -193 -491 -182 c 6
 -491 -44 l 6
 -491 -33 -474 -6 -442 -26 c 4
 -433 -33 -380 -67 -380 -91 c 6
 -380 -163 l 5
 -108 -163 l 6
 -97 -163 -80 -174 -80 -174 c 5
 -40 -208 l 6
 -12 -232 -37 -251 -63 -251 c 6
EndSplineSet
Substitution2: "Single Substitution lookup 848 subtable" uni1CD6.alt3
Substitution2: "Single Substitution lookup 847 subtable" uni1CD6.alt3
Substitution2: "Single Substitution lookup 845 subtable" uni1CD6.alt2
Substitution2: "Single Substitution lookup 844 subtable" uni1CD6.alt2
Substitution2: "Single Substitution lookup 842 subtable" uni1CD6.alt1
Substitution2: "Single Substitution lookup 841 subtable" uni1CD6.alt1
Substitution2: "Single Substitution lookup 839 subtable" uni1CD6.alt
Substitution2: "Single Substitution lookup 838 subtable" uni1CD6.alt
Substitution2: "Single Substitution lookup 837 subtable" uni1CD6.alt
Substitution2: "Single Substitution lookup 836 subtable" uni1CD6.alt
EndChar

StartChar: uni1CD7
Encoding: 7383 7383 138
Width: 0
GlyphClass: 4
Flags: W
HStem: -293 89<-398.258 -128.012> -114 80<-399.212 -318>
VStem: -524 118<-196.609 -121.138>
AnchorPoint: "Anchor-15" -288 0 mark 0
AnchorPoint: "Anchor-10" -288 0 mark 0
AnchorPoint: "Anchor-7" -288 0 mark 0
LayerCount: 2
Fore
SplineSet
-111 -293 m 2
 -348 -293 l 2
 -464 -293 -524 -227 -524 -168 c 0
 -524 -99 -477 -34 -351 -34 c 2
 -318 -34 l 1
 -283 -114 l 1
 -356 -114 l 2
 -388 -114 -406 -135 -406 -160 c 0
 -406 -183 -390 -204 -356 -204 c 2
 -156 -204 l 2
 -145 -204 -128 -215 -128 -215 c 1
 -88 -250 l 2
 -60 -274 -85 -293 -111 -293 c 2
EndSplineSet
Substitution2: "Single Substitution lookup 848 subtable" uni1CD7.alt3
Substitution2: "Single Substitution lookup 847 subtable" uni1CD7.alt3
Substitution2: "Single Substitution lookup 845 subtable" uni1CD7.alt2
Substitution2: "Single Substitution lookup 844 subtable" uni1CD7.alt2
Substitution2: "Single Substitution lookup 842 subtable" uni1CD7.alt1
Substitution2: "Single Substitution lookup 841 subtable" uni1CD7.alt1
Substitution2: "Single Substitution lookup 839 subtable" uni1CD7.alt
Substitution2: "Single Substitution lookup 838 subtable" uni1CD7.alt
Substitution2: "Single Substitution lookup 837 subtable" uni1CD7.alt
Substitution2: "Single Substitution lookup 836 subtable" uni1CD7.alt
EndChar

StartChar: uni1CD8
Encoding: 7384 7384 139
Width: 0
GlyphClass: 4
Flags: W
HStem: -281 62<-239.424 -63.7321>
AnchorPoint: "Anchor-15" -138 0 mark 0
AnchorPoint: "Anchor-10" -138 0 mark 0
AnchorPoint: "Anchor-7" -138 0 mark 0
LayerCount: 2
Fore
SplineSet
-129 -281 m 0
 -288 -281 -399 -174 -399 -138 c 0
 -399 -128 -389 -112 -363 -112 c 0
 -350 -112 -341 -118 -333 -125 c 2
 -327 -131 l 1
 -276 -175 -234 -219 -151 -219 c 4
 -23 -219 10 -108 47 -108 c 0
 72 -108 139 -149 139 -172 c 0
 139 -211 -5 -281 -129 -281 c 0
EndSplineSet
Substitution2: "Single Substitution lookup 848 subtable" uni1CD8.alt3
Substitution2: "Single Substitution lookup 847 subtable" uni1CD8.alt3
Substitution2: "Single Substitution lookup 845 subtable" uni1CD8.alt2
Substitution2: "Single Substitution lookup 844 subtable" uni1CD8.alt2
Substitution2: "Single Substitution lookup 842 subtable" uni1CD8.alt1
Substitution2: "Single Substitution lookup 841 subtable" uni1CD8.alt1
Substitution2: "Single Substitution lookup 839 subtable" uni1CD8.alt
Substitution2: "Single Substitution lookup 838 subtable" uni1CD8.alt
Substitution2: "Single Substitution lookup 837 subtable" uni1CD8.alt
Substitution2: "Single Substitution lookup 836 subtable" uni1CD8.alt
EndChar

StartChar: uni1CD9
Encoding: 7385 7385 140
Width: 0
GlyphClass: 4
Flags: W
HStem: -302 270
AnchorPoint: "Anchor-15" -265 0 mark 0
AnchorPoint: "Anchor-10" -265 0 mark 0
AnchorPoint: "Anchor-7" -265 0 mark 0
LayerCount: 2
Fore
SplineSet
-70 -302 m 5
 -250 -155 l 5
 -438 -302 l 5
 -493 -254 l 5
 -273 -32 l 5
 -31 -266 l 5
 -70 -302 l 5
EndSplineSet
Substitution2: "Single Substitution lookup 848 subtable" uni1CD9.alt3
Substitution2: "Single Substitution lookup 847 subtable" uni1CD9.alt3
Substitution2: "Single Substitution lookup 845 subtable" uni1CD9.alt2
Substitution2: "Single Substitution lookup 844 subtable" uni1CD9.alt2
Substitution2: "Single Substitution lookup 842 subtable" uni1CD9.alt1
Substitution2: "Single Substitution lookup 841 subtable" uni1CD9.alt1
Substitution2: "Single Substitution lookup 839 subtable" uni1CD9.alt
Substitution2: "Single Substitution lookup 838 subtable" uni1CD9.alt
Substitution2: "Single Substitution lookup 837 subtable" uni1CD9.alt
Substitution2: "Single Substitution lookup 836 subtable" uni1CD9.alt
EndChar

StartChar: uni1CDA
Encoding: 7386 7386 141
Width: 0
GlyphClass: 4
Flags: W
HStem: 743 213<-238 -140 -104 -6>
VStem: -238 98<743 956> -104 98<743 956>
AnchorPoint: "Anchor-13" -90 680 mark 0
AnchorPoint: "Anchor-4" -90 680 mark 0
AnchorPoint: "Anchor-0" -90 680 mark 0
LayerCount: 2
Fore
SplineSet
-104 743 m 5
 -104 956 l 5
 -6 956 l 5
 -6 743 l 5
 -104 743 l 5
-238 743 m 1
 -238 956 l 1
 -140 956 l 1
 -140 743 l 1
 -238 743 l 1
EndSplineSet
Substitution2: "Single Substitution lookup 862 subtable" uni1CDA.iirephc
Substitution2: "Single Substitution lookup 861 subtable" uni1CDA.iireph
Substitution2: "Single Substitution lookup 860 subtable" uni1CDA.iicandra
Substitution2: "Single Substitution lookup 859 subtable" uni1CDA.iireph
Substitution2: "Single Substitution lookup 858 subtable" uni1CDA.ii
Substitution2: "Single Substitution lookup 823 subtable" uni1CDA.iirephc
Substitution2: "Single Substitution lookup 822 subtable" uni1CDA.iicandra
Substitution2: "Single Substitution lookup 821 subtable" uni1CDA.alt
Substitution2: "Single Substitution lookup 820 subtable" uni1CDA.alt2
Substitution2: "Single Substitution lookup 819 subtable" uni1CDA.alt2
Substitution2: "Single Substitution lookup 818 subtable" uni1CDA.alt
Substitution2: "Single Substitution lookup 817 subtable" uni1CDA.alt
Substitution2: "Single Substitution lookup 816 subtable" uni1CDA.alt
Substitution2: "Single Substitution lookup 815 subtable" uni1CDA.alt
Substitution2: "Single Substitution lookup 814 subtable" uni1CDA.iirephc
Substitution2: "Single Substitution lookup 813 subtable" uni1CDA.alt3
Substitution2: "Single Substitution lookup 812 subtable" uni1CDA.alt2
Substitution2: "Single Substitution lookup 811 subtable" uni1CDA.alt1
Substitution2: "Single Substitution lookup 810 subtable" uni1CDA.alt2
Substitution2: "Single Substitution lookup 809 subtable" uni1CDA.alt
Substitution2: "Single Substitution lookup 808 subtable" uni1CDA.alt
Substitution2: "Single Substitution lookup 807 subtable" uni1CDA.alt3
Substitution2: "Single Substitution lookup 806 subtable" uni1CDA.alt3
Substitution2: "Single Substitution lookup 805 subtable" uni1CDA.alt3
Substitution2: "Single Substitution lookup 804 subtable" uni1CDA.iicandra
Substitution2: "Single Substitution lookup 803 subtable" uni1CDA.alt3
Substitution2: "Single Substitution lookup 802 subtable" uni1CDA.alt1
Substitution2: "Single Substitution lookup 801 subtable" uni1CDA.alt1
EndChar

StartChar: uni1CDB
Encoding: 7387 7387 142
Width: 0
GlyphClass: 4
Flags: W
HStem: 743 213<-302 -204 -170 -72 -39 59>
VStem: -302 98<743 956> -170 98<743 956> -39 98<743 956>
AnchorPoint: "Anchor-13" -99 680 mark 0
AnchorPoint: "Anchor-4" -99 680 mark 0
AnchorPoint: "Anchor-0" -99 680 mark 0
LayerCount: 2
Fore
SplineSet
-39 743 m 5
 -39 956 l 5
 59 956 l 5
 59 743 l 5
 -39 743 l 5
-170 743 m 1
 -170 956 l 1
 -72 956 l 1
 -72 743 l 1
 -170 743 l 1
-302 743 m 1
 -302 956 l 1
 -204 956 l 1
 -204 743 l 1
 -302 743 l 1
EndSplineSet
EndChar

StartChar: uni1CDC
Encoding: 7388 7388 143
Width: 0
GlyphClass: 4
Flags: W
VStem: -183 111<-263.818 -68.1819>
AnchorPoint: "Anchor-15" -133 0 mark 0
AnchorPoint: "Anchor-10" -133 0 mark 0
AnchorPoint: "Anchor-7" -133 0 mark 0
LayerCount: 2
Fore
SplineSet
-121 -297 m 4
 -130 -289 -183 -255 -183 -230 c 6
 -183 -53 l 6
 -183 -43 -166 -14 -134 -35 c 4
 -125 -43 -72 -77 -72 -102 c 6
 -72 -279 l 6
 -72 -289 -89 -318 -121 -297 c 4
EndSplineSet
Substitution2: "Single Substitution lookup 848 subtable" uni1CDC.alt3
Substitution2: "Single Substitution lookup 847 subtable" uni1CDC.alt3
Substitution2: "Single Substitution lookup 845 subtable" uni1CDC.alt2
Substitution2: "Single Substitution lookup 844 subtable" uni1CDC.alt2
Substitution2: "Single Substitution lookup 842 subtable" uni1CDC.alt1
Substitution2: "Single Substitution lookup 841 subtable" uni1CDC.alt1
Substitution2: "Single Substitution lookup 839 subtable" uni1CDC.alt
Substitution2: "Single Substitution lookup 838 subtable" uni1CDC.alt
Substitution2: "Single Substitution lookup 837 subtable" uni1CDC.alt
Substitution2: "Single Substitution lookup 836 subtable" uni1CDC.alt
EndChar

StartChar: uni1CDD
Encoding: 7389 7389 144
Width: 0
GlyphClass: 4
Flags: W
HStem: -291 211
VStem: -240 212
AnchorPoint: "Anchor-15" -133 0 mark 0
AnchorPoint: "Anchor-10" -133 0 mark 0
AnchorPoint: "Anchor-7" -133 0 mark 0
LayerCount: 2
Fore
SplineSet
-134 -291 m 1
 -240 -186 l 1
 -134 -80 l 5
 -28 -186 l 1
 -134 -291 l 1
EndSplineSet
Substitution2: "Single Substitution lookup 848 subtable" uni1CDD.alt3
Substitution2: "Single Substitution lookup 847 subtable" uni1CDD.alt3
Substitution2: "Single Substitution lookup 845 subtable" uni1CDD.alt2
Substitution2: "Single Substitution lookup 844 subtable" uni1CDD.alt2
Substitution2: "Single Substitution lookup 842 subtable" uni1CDD.alt1
Substitution2: "Single Substitution lookup 841 subtable" uni1CDD.alt1
Substitution2: "Single Substitution lookup 839 subtable" uni1CDD.alt
Substitution2: "Single Substitution lookup 838 subtable" uni1CDD.alt
Substitution2: "Single Substitution lookup 837 subtable" uni1CDD.alt
Substitution2: "Single Substitution lookup 836 subtable" uni1CDD.alt
EndChar

StartChar: uni1CE0
Encoding: 7392 7392 147
Width: 430
Flags: W
HStem: 731 80<141.788 223> 901 89<142.742 412.988>
VStem: 17 118<818.138 893.609>
LayerCount: 2
Fore
SplineSet
413 912 m 5
 413 912 396 901 385 901 c 6
 185 901 l 6
 151 901 135 880 135 857 c 4
 135 832 153 811 185 811 c 6
 258 811 l 5
 223 731 l 5
 190 731 l 6
 64 731 17 796 17 865 c 4
 17 924 77 990 193 990 c 6
 430 990 l 6
 456 990 481 971 453 947 c 6
 413 912 l 5
EndSplineSet
EndChar

StartChar: uni1CE1
Encoding: 7393 7393 148
Width: 396
Flags: W
HStem: -174 72<50.249 153.201> 844 72<277.031 356.608>
VStem: 131 123<401.79 819.296> 179 124<-68.1183 342.352>
LayerCount: 2
Fore
SplineSet
414 718 m 1xe0
 398 778 357 844 316 844 c 0
 245 844 254 720 254 683 c 0xe0
 254 494 303 250 303 63 c 0
 303 -86 246 -174 102 -174 c 0
 69 -174 21 -173 -70 -97 c 1
 -23 -21 l 1
 28 -71 80 -102 102 -102 c 0
 180 -102 179 -25 179 63 c 0xd0
 179 268 131 475 131 683 c 0
 131 815 170 916 316 916 c 0
 390 916 448 876 492 749 c 1
 414 718 l 1xe0
EndSplineSet
EndChar

StartChar: uni1CE4
Encoding: 7396 7396 151
Width: 191
Flags: W
HStem: 262 94<141.742 411.988>
VStem: 16 118<363.234 466.127>
LayerCount: 2
Fore
SplineSet
429 262 m 2
 192 262 l 2
 76 262 16 331 16 393 c 0
 16 507 167 614 251 670 c 1
 334 622 l 1
 264 574 134 488 134 402 c 0
 134 377 150 356 184 356 c 2
 384 356 l 2
 395 356 412 344 412 344 c 1
 452 308 l 2
 480 282 455 262 429 262 c 2
EndSplineSet
MultipleSubs2: "Multiple Substitution lookup 209 subtable" uni1CE4 uni0903
EndChar

StartChar: uni1CE5
Encoding: 7397 7397 152
Width: 179
Flags: W
HStem: 232 94<141.742 411.988>
VStem: 16 118<121.873 224.766>
LayerCount: 2
Fore
SplineSet
412 244 m 1
 412 244 395 232 384 232 c 2
 184 232 l 2
 150 232 134 211 134 186 c 0
 134 100 264 14 334 -34 c 1
 251 -82 l 1
 167 -26 16 81 16 195 c 0
 16 257 76 326 192 326 c 2
 429 326 l 2
 455 326 480 306 452 280 c 2
 412 244 l 1
EndSplineSet
MultipleSubs2: "Multiple Substitution lookup 209 subtable" uni1CE5 uni0903
EndChar

StartChar: uni1CE8
Encoding: 7400 7400 155
Width: 501
Flags: W
HStem: -216 55<200.701 342.133> 263 76<190.143 466.988>
VStem: 46 125<143.241 243.181> 368 125<-136.524 -13.1688>
LayerCount: 2
Fore
SplineSet
300 -216 m 0
 130 -216 9 -118 9 -82 c 0
 9 -62 41 -28 75 -28 c 0
 118 -28 152 -161 276 -161 c 4
 346 -161 368 -122 368 -66 c 0
 368 8 266 37 207 56 c 0
 137 79 46 112 46 194 c 0
 46 265 87 339 206 339 c 2
 438 339 l 2
 450 339 467 326 467 326 c 1
 480 311 l 2
 503 286 487 263 456 263 c 2
 274 263 l 2
 184 263 171 226 171 194 c 0
 171 126 267 95 321 76 c 0
 391 50 493 16 493 -66 c 0
 493 -155 430 -216 300 -216 c 0
EndSplineSet
MultipleSubs2: "Multiple Substitution lookup 209 subtable" uni1CE8 uni0903
EndChar

StartChar: uni1CE9
Encoding: 7401 7401 156
Width: 893
GlyphClass: 2
Flags: W
HStem: -5 51<329.967 540.275> 355 55<215.2 262.751> 367 51<642.091 685> 633 51<239.132 328.656 613.624 683.176>
VStem: 33 125<244.946 488.348> 341 107<487.176 622.103> 478 122<464.127 613.294> 725 125<258.274 547.762>
AnchorPoint: "Anchor-7" 437 -22 basechar 0
AnchorPoint: "Anchor-1" 481 680 basechar 0
AnchorPoint: "Anchor-0" 481 680 basechar 0
LayerCount: 2
Fore
SplineSet
434 -5 m 0xbf
 171 -5 33 171 33 371 c 0
 33 481 105 684 292 684 c 0
 395 684 448 623 448 548 c 0
 448 507 424 385 218 355 c 1
 196 410 l 1xdf
 285 418 341 497 341 548 c 4
 341 571 341 633 292 633 c 4
 201 633 158 492 158 371 c 0
 158 257 221 46 434 46 c 0
 626 46 725 226 725 383 c 0
 725 441 724 633 645 633 c 0
 614 633 600 595 600 548 c 0
 600 482 635 421 688 418 c 1
 685 367 l 1
 583 369 478 416 478 548 c 0
 478 617 548 684 645 684 c 0
 814 684 850 536 850 383 c 0
 850 194 706 -5 434 -5 c 0xbf
EndSplineSet
EndChar

StartChar: uni1CEA
Encoding: 7402 7402 157
Width: 756
GlyphClass: 2
Flags: W
HStem: -5 41<299.89 502.061> 403 46<160.694 182.5 619.872 646.951> 640 51<133.144 213.957 584.236 667.767>
VStem: 13 102.923<497.835 623.537> 86 127<120.868 285.737> 244 130<445.818 607.456> 428 130<445.989 613.509> 589 127<123.295 285.423> 685 104<490.802 623.347>
AnchorPoint: "Anchor-7" 401 -14 basechar 0
AnchorPoint: "Anchor-1" 444 680 basechar 0
AnchorPoint: "Anchor-0" 412 680 basechar 0
LayerCount: 2
Fore
SplineSet
115.923431353 569.031837802 m 0xf6
 115.923431353 567.554786085 118.119525909 471.634413644 202 449 c 1
 179 403 l 1
 44 428 13 509 13 556 c 0xf6
 13 650 95 691 176 691 c 0
 261 691 374 663 374 527 c 0
 374 392 213 333 213 212 c 0
 213 169 218 36 401 36 c 0
 584 36 589 169 589 212 c 0xef
 589 333 428 392 428 527 c 0
 428 663 541 691 626 691 c 0
 707 691 789 650 789 556 c 0
 789 509 758 428 623 403 c 1
 602 450 l 1
 660 457 685 522 685 556 c 0xe680
 685 590 672 640 626 640 c 0
 588 640 558 601 558 527 c 0
 558 480 566 427 597 392 c 0
 652 330 716 303 716 211 c 0
 715 60 574 -5 401 -5 c 0
 228 -5 86 60 86 212 c 0xef
 86 359 244 331 244 527 c 0
 244 600 206 640 176 640 c 0
 135.49375535 640 115.923431353 602.005181036 115.923431353 569.031837802 c 0xf6
EndSplineSet
EndChar

StartChar: uni1CEB
Encoding: 7403 7403 158
Width: 756
GlyphClass: 2
Flags: W
HStem: -5 41<299.89 510.31> 310 44<588.553 632> 428 44<161.021 191> 583 45<550.713 620.351> 648 43<131.166 213.264>
VStem: 86 127<120.868 285.737> 244 130<445.818 614.444> 415 122<411.825 556.404> 672 125<203.552 482.311>
AnchorPoint: "Anchor-7" 408 -31 basechar 0
AnchorPoint: "Anchor-1" 448 678 basechar 0
AnchorPoint: "Anchor-0" 444 680 basechar 0
LayerCount: 2
Fore
SplineSet
401 -5 m 0
 228 -5 86 60 86 212 c 0
 86 359 244 331 244 527 c 0
 244 600 208 648 178 648 c 0
 122 648 107 590 117 556 c 0
 126.593655016 523.381572947 156 479 214 472 c 1
 191 428 l 1
 56 434 13 509 13 556 c 0
 13 650 95 691 176 691 c 0
 261 691 374 663 374 527 c 0
 374 392 213 333 213 212 c 0
 213 169 218 36 401 36 c 4
 585 36 672 162 672 327 c 0
 672 384 660 583 581 583 c 0
 550 583 537 539 537 491 c 0
 537 425 582 357 635 354 c 1
 632 310 l 1
 530 313 415 360 415 491 c 0
 415 560 485 628 582 628 c 0
 751 628 797 479 797 327 c 0
 797 135 670 -5 401 -5 c 0
EndSplineSet
EndChar

StartChar: uni1CEC
Encoding: 7404 7404 159
Width: 974
GlyphClass: 2
Flags: W
HStem: -5 41<299.89 508.951> 403 46<154.888 181.739> 577 51<542.54 618.743> 640 51<134.233 213.957>
VStem: 13 104<488.141 623.347> 86 127<120.868 285.737> 244 130<445.818 607.456> 677 120<327 470.498> 819 122<97.1187 225.322>
AnchorPoint: "Anchor-7" 412 -17 basechar 0
AnchorPoint: "Anchor-1" 442 680 basechar 0
AnchorPoint: "Anchor-0" 442 680 basechar 0
LayerCount: 2
Fore
SplineSet
803 11 m 1xf780
 767 47 l 1
 797 62 819 109 819 160 c 0
 819 182 815 213 787 236 c 1
 751 91 624 -5 401 -5 c 0
 228 -5 86 60 86 212 c 0xf780
 86 359 244 331 244 527 c 0
 244 600 206 640 176 640 c 0
 130 640 117 590 117 556 c 0
 117 522 139 456 197 449 c 1
 179 403 l 1
 44 428 13 509 13 556 c 0xfb80
 13 650 95 691 176 691 c 0
 261 691 374 663 374 527 c 0
 374 392 213 333 213 212 c 0
 213 169 218 36 401 36 c 0
 580 36 656 156 669 280 c 1
 553 295 415 388 415 491 c 0
 415 560 485 628 582 628 c 0
 751 628 797 479 797 327 c 2
 797 325 l 1
 915 271 941 221 941 160 c 0
 941 76 832 22 803 11 c 1xf780
582 577 m 0
 541 577 526 538 537 491 c 0
 547.482685499 446.210343775 619 347 677 327 c 5
 677 396 649 577 582 577 c 0
EndSplineSet
EndChar

StartChar: uni1CED
Encoding: 7405 7405 160
Width: 0
GlyphClass: 4
Flags: W
HStem: -278 241
VStem: -183 312
AnchorPoint: "Anchor-15" -27 0 mark 0
AnchorPoint: "Anchor-10" -27 0 mark 0
AnchorPoint: "Anchor-7" -27 0 mark 0
LayerCount: 2
Fore
SplineSet
-183 -76 m 1
 -151 -37 l 1
 129 -244 l 1
 97 -278 l 1
 -183 -76 l 1
EndSplineSet
Substitution2: "Single Substitution lookup 848 subtable" uni1CED.alt3
Substitution2: "Single Substitution lookup 847 subtable" uni1CED.alt3
Substitution2: "Single Substitution lookup 845 subtable" uni1CED.alt2
Substitution2: "Single Substitution lookup 844 subtable" uni1CED.alt2
Substitution2: "Single Substitution lookup 842 subtable" uni1CED.alt1
Substitution2: "Single Substitution lookup 841 subtable" uni1CED.alt1
Substitution2: "Single Substitution lookup 839 subtable" uni1CED.alt
Substitution2: "Single Substitution lookup 838 subtable" uni1CED.alt
Substitution2: "Single Substitution lookup 837 subtable" uni1CED.alt
Substitution2: "Single Substitution lookup 836 subtable" uni1CED.alt
EndChar

StartChar: uni1CEE
Encoding: 7406 7406 161
Width: 617
Flags: W
HStem: 0 39<238.925 348.834> 315 74<211.104 334.654> 647 36<190.04 271.215>
VStem: 33 124<440.462 588.671> 64 131<99.5809 283.964>
LayerCount: 2
Fore
SplineSet
513 282 m 5xe0
 407 383 l 5
 513 483 l 5
 619 383 l 5
 513 282 l 5xe0
302 588 m 1
 303 585 l 1
 301 589 277 647 231 647 c 0
 167 647 157 558 157 507 c 0xf0
 157 446 206 389 271 389 c 0
 304 389 322 414 356 414 c 0
 362 414 384 419 384 371 c 0
 384 339 369 315 266 315 c 0
 251 315 233 316 215 321 c 1
 198 299 195 244 195 213 c 0
 195 179 197 39 286 39 c 0
 325 39 376.250528324 67.875792486 399 102 c 0
 423 138 398 242 442 242 c 0
 464 242 518 212 518 178 c 0
 518 148 498 103 451 57 c 0
 407 13 353 0 290 0 c 0
 252 0 64 24 64 180 c 0xe8
 64 219 65 284 134 344 c 1
 77 379 33 434 33 505 c 0xf0
 33 611 123 683 228 683 c 0
 286 683 339 664 374 638 c 0
 385 632 385 622 385 619 c 0
 385 593 349 573 324 573 c 0
 316 573 306 580 302 588 c 1
EndSplineSet
EndChar

StartChar: uni1CEF
Encoding: 7407 7407 162
Width: 528
Flags: W
HStem: 0 39<239.54 333.983> 178 88<319.79 390.985> 315 74<211.104 334.654> 647 36<190.04 272.089>
VStem: 33 124<440.462 588.374> 64 131<103.904 283.964>
LayerCount: 2
Fore
SplineSet
419 389 m 1xf0
 319 484 l 1
 419 579 l 1
 518 484 l 1
 419 389 l 1xf0
302 588 m 1
 303 585 l 1
 301 589 277 647 231 647 c 0
 167 647 157 557 157 507 c 0xf8
 157 446 206 389 271 389 c 0
 304 389 322 414 356 414 c 0
 362 414 384 419 384 371 c 0
 384 339 369 315 266 315 c 0
 251 315 233 316 215 321 c 1
 198 299 195 244 195 213 c 0
 195 179 197 39 286 39 c 0
 354 39 397 148 391 168 c 0
 388 176 385 178 368 178 c 0
 345 178 325 152 304 152 c 0
 287 152 272 161 272 180 c 0
 272 212 288 266 327 266 c 0
 382 266 462 249 462 177 c 0
 462 39 346 0 290 0 c 0
 275 0 64 24 64 180 c 0xf4
 64 219 65 284 134 344 c 1
 77 379 33 434 33 505 c 0xf8
 33 611 123 682 228 683 c 0
 267 683 385 651 385 619 c 0
 385 593 349 573 324 573 c 0
 316 573 306 580 302 588 c 1
EndSplineSet
EndChar

StartChar: uni1CF0
Encoding: 7408 7408 163
Width: 652
Flags: W
HStem: -7 38<236.664 364.932> 356 41<202.914 266 323.589 398.895> 639 51<255.918 320.221>
VStem: 21 122<124.401 286.747> 442 125<119.225 278.901>
LayerCount: 2
Fore
SplineSet
533 351 m 1
 427 452 l 1
 533 552 l 1
 639 452 l 1
 533 351 l 1
266 397 m 1
 227 455 123 465 123 559 c 0
 123 622 167 690 282 690 c 0
 322 690 381 685 456 530 c 1
 383 501 l 1
 373 552 320 639 282 639 c 0
 262 639 239 603 248 559 c 0
 253.811490848 530.588266964 266 514 284 493 c 0
 305 471 318 444 328 397 c 1
 391 397 l 1
 475 364 567 291 567 210 c 0
 567 63 430 -7 306 -7 c 0
 153 -7 21 75 21 210 c 0
 21 332 157 393 266 397 c 1
420 311 m 0
 409 328 393 341 379 356 c 1
 262 356 l 2
 181 356 143 275 143 210 c 0
 143 111 220 31 306 31 c 0
 389 31 442 124 442 210 c 0
 442 243 433 294 420 311 c 0
EndSplineSet
EndChar

StartChar: uni1CF1
Encoding: 7409 7409 164
Width: 560
Flags: W
HStem: 267 71<163.613 380.718>
VStem: 23 125<353.853 495.704> 399 124<102.442 251.13>
LayerCount: 2
Fore
SplineSet
354 371 m 1
 247 471 l 1
 354 573 l 1
 460 471 l 1
 354 371 l 1
324 -76 m 1
 271 -18 l 1
 363 47 399 106 399 196 c 0
 399 204 399 267 329 267 c 2
 218 267 l 2
 120 267 23 310 23 406 c 0
 23 512 108 601 222 678 c 1
 274 625 l 1
 196 570 148 493 148 406 c 0
 148 376 163 338 218 338 c 2
 329 338 l 2
 409 338 523 300 523 196 c 0
 523 81 438 3 324 -76 c 1
192 32 m 1
 86 131 l 1
 192 233 l 1
 299 131 l 1
 192 32 l 1
EndSplineSet
EndChar

StartChar: uni1CF2
Encoding: 7410 7410 165
Width: 558
GlyphClass: 4
Flags: W
HStem: 227 72<174.358 333.773> 335 72<174.358 339.356>
LayerCount: 2
Fore
SplineSet
279 335 m 0
 120 335 9 455 9 496 c 0
 9 507 19 525 45 525 c 0
 58 525 67 518 75 510 c 2
 81 504 l 2
 132 455 174 407 257 407 c 0
 385 407 418 530 455 530 c 0
 480 530 547 484 547 458 c 0
 547 415 403 335 279 335 c 0
455 104 m 0
 436 104 402 149 391 160 c 0
 353 197 315 227 257 227 c 4
 174 227 132 179 81 130 c 2
 75 124 l 2
 67 116 58 109 45 109 c 0
 19 109 9 127 9 138 c 0
 9 179 120 299 279 299 c 0
 403 299 547 219 547 176 c 0
 547 150 480 104 455 104 c 0
EndSplineSet
EndChar

StartChar: uni1CF3
Encoding: 7411 7411 166
Width: 508
GlyphClass: 4
Flags: W
VStem: 159 79<202.535 351.884> 278 79<242.116 391.465>
LayerCount: 2
Fore
SplineSet
412 48 m 0
 365 48 278 182 278 296 c 0
 278 443 409 546 454 546 c 0
 466 546 486 537 486 513 c 0
 486 501 478 492 470 485 c 2
 463 479 l 2
 409 432 357 393 357 316 c 4
 357 198 491 168 491 133 c 0
 491 110 440 48 412 48 c 0
62 48 m 0
 50 48 30 57 30 81 c 0
 30 93 38 102 46 109 c 2
 53 115 l 2
 107 162 159 201 159 278 c 0
 159 396 25 426 25 461 c 0
 25 484 76 546 104 546 c 0
 151 546 238 412 238 298 c 0
 238 151 107 48 62 48 c 0
EndSplineSet
EndChar

StartChar: uni1CF4
Encoding: 7412 7412 167
Width: 0
GlyphClass: 4
Flags: W
HStem: 1117 62<-412.424 -236.732>
LayerCount: 2
Fore
SplineSet
-302 1117 m 0
 -461 1117 -572 1224 -572 1260 c 0
 -572 1270 -562 1286 -536 1286 c 0
 -523 1286 -514 1280 -506 1273 c 2
 -500 1267 l 1
 -449 1223 -407 1179 -324 1179 c 4
 -196 1179 -163 1290 -126 1290 c 0
 -101 1290 -34 1249 -34 1226 c 0
 -34 1187 -178 1117 -302 1117 c 0
EndSplineSet
EndChar

StartChar: uni1CF5
Encoding: 7413 7413 168
Width: 619
Flags: W
HStem: 0 81<163 491> 603 77<198 499>
LayerCount: 2
Fore
SplineSet
33 0 m 1
 33 55 l 1
 278 343 l 1
 48 625 l 1
 48 680 l 1
 628 680 l 1
 628 625 l 1
 397 357 l 1
 642 55 l 1
 642 0 l 1
 33 0 l 1
198 603 m 1
 345 422 l 1
 499 603 l 1
 198 603 l 1
332 278 m 1
 163 81 l 1
 491 81 l 1
 332 278 l 1
EndSplineSet
EndChar

StartChar: uni1CF6
Encoding: 7414 7414 169
Width: 594
Flags: W
HStem: 182 62<145.604 250.072 386.221 486.954>
VStem: 249 107<318.325 392.755> 492 105<249.614 339.175>
LayerCount: 2
Fore
SplineSet
444 182 m 0
 376 182 348 202 307 241 c 1
 250 190 219 179 181 179 c 0
 68 179 35 273 35 324 c 0
 35 371 53 410 87 454 c 1
 170 409 l 1
 150 373 142 350 140 323 c 0
 137 284 137 244 181 244 c 0
 214 244 258 265 277 288 c 1
 274 311 268 330 259 351 c 0
 254 366 249 381 249 389 c 0
 249 401 251 408 273 408 c 0
 322 408 356 401 356 317 c 0
 356 294 388 244 444 244 c 0
 476 244 492 258 492 293 c 0
 492 324 475 337 452 356 c 1
 476 421 l 1
 541 391 597 363 597 293 c 0
 597 239 543 182 444 182 c 0
EndSplineSet
EndChar

StartChar: uni1CF8
Encoding: 7416 7416 170
Width: 0
GlyphClass: 4
Flags: W
HStem: 742 36<-156.126 -102.194> 917 37<-155.509 -102.355>
VStem: -259 90<788.473 905.684> -88 90<788.171 906.59>
AnchorPoint: "Anchor-13" -130 678 mark 0
AnchorPoint: "Anchor-4" -130 682 mark 0
AnchorPoint: "Anchor-0" -130 680 mark 0
LayerCount: 2
Fore
SplineSet
-130 742 m 0
 -229 742 -259 811 -259 846 c 0
 -259 899 -209 954 -126 954 c 0
 -43 954 2 896 2 848 c 0
 2 808 -31 742 -130 742 c 0
-128 917 m 0
 -154 917 -169 881 -169 846 c 0
 -169 812 -154 778 -128 778 c 4
 -101 778 -88 813 -88 848 c 0
 -88 883 -104 917 -128 917 c 0
EndSplineSet
Substitution2: "Single Substitution lookup 862 subtable" uni1CF8.iirephc
Substitution2: "Single Substitution lookup 861 subtable" uni1CF8.iireph
Substitution2: "Single Substitution lookup 860 subtable" uni1CF8.iicandra
Substitution2: "Single Substitution lookup 859 subtable" uni1CF8.iireph
Substitution2: "Single Substitution lookup 858 subtable" uni1CF8.ii
Substitution2: "Single Substitution lookup 823 subtable" uni1CF8.iirephc
Substitution2: "Single Substitution lookup 822 subtable" uni1CF8.iicandra
Substitution2: "Single Substitution lookup 821 subtable" uni1CF8.alt
Substitution2: "Single Substitution lookup 820 subtable" uni1CF8.alt2
Substitution2: "Single Substitution lookup 819 subtable" uni1CF8.alt2
Substitution2: "Single Substitution lookup 818 subtable" uni1CF8.alt
Substitution2: "Single Substitution lookup 817 subtable" uni1CF8.alt
Substitution2: "Single Substitution lookup 816 subtable" uni1CF8.alt
Substitution2: "Single Substitution lookup 815 subtable" uni1CF8.alt
Substitution2: "Single Substitution lookup 814 subtable" uni1CF8.iirephc
Substitution2: "Single Substitution lookup 813 subtable" uni1CF8.alt3
Substitution2: "Single Substitution lookup 812 subtable" uni1CF8.alt2
Substitution2: "Single Substitution lookup 811 subtable" uni1CF8.alt1
Substitution2: "Single Substitution lookup 810 subtable" uni1CF8.alt2
Substitution2: "Single Substitution lookup 809 subtable" uni1CF8.alt
Substitution2: "Single Substitution lookup 808 subtable" uni1CF8.alt
Substitution2: "Single Substitution lookup 807 subtable" uni1CF8.alt3
Substitution2: "Single Substitution lookup 806 subtable" uni1CF8.alt3
Substitution2: "Single Substitution lookup 805 subtable" uni1CF8.alt3
Substitution2: "Single Substitution lookup 804 subtable" uni1CF8.iicandra
Substitution2: "Single Substitution lookup 803 subtable" uni1CF8.alt3
Substitution2: "Single Substitution lookup 802 subtable" uni1CF8.alt1
Substitution2: "Single Substitution lookup 801 subtable" uni1CF8.alt1
EndChar

StartChar: uniA830
Encoding: 43056 43056 172
Width: 231
Flags: W
VStem: 60 111<14.3254 735.675>
LayerCount: 2
Fore
SplineSet
121 -21 m 0
 111 -11 60 25 60 52 c 2
 60 751 l 2
 60 766 79 801 110 771 c 0
 120 761 171 725 171 698 c 2
 171 -1 l 2
 171 -16 152 -51 121 -21 c 0
EndSplineSet
EndChar

StartChar: uniA833
Encoding: 43059 43059 175
Width: 745
Flags: W
HStem: 486 196
LayerCount: 2
Fore
SplineSet
705 604 m 2
 135 486 l 2
 123 483 116 484 104 490 c 2
 46 518 l 2
 8 537 37 559 53 563 c 2
 623 682 l 2
 634 685 642 684 654 678 c 2
 712 649 l 2
 750 630 720 608 705 604 c 2
EndSplineSet
EndChar

StartChar: uniA836
Encoding: 43062 43062 178
Width: 390
Flags: W
HStem: 183 57<171.136 253.827> 452 57<171.582 252.61>
VStem: 19 130<267.403 419.015> 276 131<273.629 422.939>
LayerCount: 2
Fore
SplineSet
209 183 m 0
 67 183 19 280 19 343 c 0
 19 426 92 509 217 509 c 0
 342 509 407 423 407 348 c 0
 407 278 347 183 209 183 c 0
213 452 m 4
 168 452 149 402 149 344 c 0
 149 286 168 240 214 240 c 4
 260 240 276 290 276 346 c 0
 276 403 257 452 213 452 c 4
EndSplineSet
EndChar

StartChar: uniA837
Encoding: 43063 43063 179
Width: 390
Flags: W
HStem: 114 79<201.742 281.961> 666 20G<447.28 494>
VStem: 49 130<216.051 349.389> 306 131<216.845 349.668>
LayerCount: 2
Fore
SplineSet
409 530 m 6
 407 528 358 490 300 449 c 5
 390 428 437 353 437 286 c 4
 437 212 377 114 239 114 c 4
 98 114 49 214 49 281 c 4
 49 309 52 370 140 436 c 6
 474 686 l 5
 535 625 l 5
 409 530 l 6
243 374 m 4
 218 374 179 343 179 282 c 4
 179 221 218 193 244 193 c 4
 270 193 306 226 306 284 c 4
 306 344 267 374 243 374 c 4
EndSplineSet
EndChar

StartChar: uniA838
Encoding: 43064 43064 180
Width: 335
Flags: W
HStem: -204 80<-179.027 46.8189>
VStem: 193 125<61.624 349.413>
LayerCount: 2
Fore
SplineSet
-65 -204 m 0
 -66 -204 -121 -204 -189 -189 c 1
 -177 -105 l 1
 -143 -113 -86 -124 -34 -124 c 0
 87 -124 193 5 193 202 c 0
 193 272 180 391 66 650 c 1
 145 681 l 1
 228 539 318 368 318 202 c 0
 318 62 265 -204 -65 -204 c 0
EndSplineSet
EndChar

StartChar: uniA839
Encoding: 43065 43065 181
Width: 338
Flags: W
HStem: -265 88<-194.861 33.9072> 607 86<271.885 358.872>
VStem: 43 125<349.235 531.287> 197 125<-41.6442 145.973>
LayerCount: 2
Fore
SplineSet
168 448 m 0
 168 298 322 201 322 48 c 0
 322 -159 113 -265 -91 -265 c 0
 -126 -265 -150 -265 -206 -255 c 1
 -194 -159 l 1
 -138 -172 -103 -177 -69 -177 c 0
 28 -177 197 -107 197 48 c 0
 197 227 43 287 43 448 c 0
 43 554 138 662 357 693 c 1
 380 607 l 1
 174 587 168 501 168 448 c 0
EndSplineSet
EndChar

StartChar: uniA8E0
Encoding: 43232 43232 182
Width: 0
GlyphClass: 4
Flags: W
HStem: 1117 71<-187.295 -102.013> 1286 71<-176.999 -93.5635>
VStem: -281 90<1191.73 1271.4> -88 86<1202.88 1280.21>
LayerCount: 2
Fore
SplineSet
-123 1117 m 0
 -191 1117 -281 1166 -281 1247 c 0
 -281 1314 -220 1357 -152 1357 c 0
 -71 1357 -2 1298 -2 1225 c 0
 -2 1159 -60 1117 -123 1117 c 0
-131 1286 m 0
 -163 1286 -191 1260 -191 1228 c 0
 -191 1200 -175 1188 -152 1188 c 0
 -116 1188 -88 1213 -88 1243 c 0
 -88 1268 -105 1286 -131 1286 c 0
EndSplineSet
Position2: "Single Positioning lookup 35 subtable" dx=-313 dy=0 dh=0 dv=0
Position2: "Single Positioning lookup 34 subtable" dx=-306 dy=0 dh=0 dv=0
Position2: "Single Positioning lookup 33 subtable" dx=-297 dy=0 dh=0 dv=0
Position2: "Single Positioning lookup 32 subtable" dx=-286 dy=0 dh=0 dv=0
Position2: "Single Positioning lookup 31 subtable" dx=-275 dy=0 dh=0 dv=0
Position2: "Single Positioning lookup 30 subtable" dx=-265 dy=0 dh=0 dv=0
Position2: "Single Positioning lookup 29 subtable" dx=-260 dy=0 dh=0 dv=0
Position2: "Single Positioning lookup 28 subtable" dx=-255 dy=0 dh=0 dv=0
Position2: "Single Positioning lookup 27 per glyph data 0" dx=-252 dy=0 dh=0 dv=0
Position2: "Single Positioning lookup 26 per glyph data 0" dx=-332 dy=0 dh=0 dv=0
Position2: "Single Positioning lookup 25 per glyph data 0" dx=-325 dy=0 dh=0 dv=0
Position2: "Single Positioning lookup 24 subtable" dx=-315 dy=0 dh=0 dv=0
Position2: "Single Positioning lookup 23 subtable" dx=-308 dy=0 dh=0 dv=0
Position2: "Single Positioning lookup 22 subtable" dx=-299 dy=0 dh=0 dv=0
Position2: "Single Positioning lookup 21 subtable" dx=-293 dy=0 dh=0 dv=0
Position2: "Single Positioning lookup 20 subtable" dx=-279 dy=0 dh=0 dv=0
Position2: "Single Positioning lookup 19 subtable" dx=-269 dy=0 dh=0 dv=0
Position2: "Single Positioning lookup 18 subtable" dx=-262 dy=0 dh=0 dv=0
Position2: "Single Positioning lookup 17 per glyph data 1" dx=-354 dy=0 dh=0 dv=0
Position2: "Single Positioning lookup 16 subtable" dx=-346 dy=0 dh=0 dv=0
Position2: "Single Positioning lookup 15 subtable" dx=-336 dy=0 dh=0 dv=0
Position2: "Single Positioning lookup 14 subtable" dx=-331 dy=0 dh=0 dv=0
Position2: "Single Positioning lookup 13 per glyph data 0" dx=-327 dy=0 dh=0 dv=0
Position2: "Single Positioning lookup 12 subtable" dx=-323 dy=0 dh=0 dv=0
Position2: "Single Positioning lookup 11 subtable" dx=-301 dy=0 dh=0 dv=0
Position2: "Single Positioning lookup 10 subtable" dx=-284 dy=0 dh=0 dv=0
Position2: "Single Positioning lookup 9 subtable" dx=-273 dy=0 dh=0 dv=0
Position2: "Single Positioning lookup 8 subtable" dx=-378 dy=0 dh=0 dv=0
Position2: "Single Positioning lookup 7 per glyph data 0" dx=-368 dy=0 dh=0 dv=0
Position2: "Single Positioning lookup 6 subtable" dx=-358 dy=0 dh=0 dv=0
Position2: "Single Positioning lookup 5 subtable" dx=-358 dy=0 dh=0 dv=0
Position2: "Single Positioning lookup 4 subtable" dx=-358 dy=0 dh=0 dv=0
Position2: "Single Positioning lookup 3 subtable" dx=-357 dy=0 dh=0 dv=0
Position2: "Single Positioning lookup 2 per glyph data 0" dx=-324 dy=0 dh=0 dv=0
Position2: "Single Positioning lookup 1 subtable" dx=-300 dy=0 dh=0 dv=0
Position2: "Single Positioning lookup 0 subtable" dx=-285 dy=0 dh=0 dv=0
EndChar

StartChar: uniA8E1
Encoding: 43233 43233 183
Width: 0
GlyphClass: 4
Flags: W
HStem: 1327 68<-127.582 -93.0751>
VStem: -228 99<1262.97 1326.46> -107 89<1000.47 1072.62> -92 82<1263.03 1326.15>
LayerCount: 2
Fore
SplineSet
-57 1198 m 0xd0
 -76 1177 -98 1158 -120 1140 c 1
 -71 1112 -18 1066 -18 1034 c 0
 -18 1014 -37 964 -70 964 c 0
 -86 964 -132 982 -132 1010 c 0
 -132 1026 -107 1039 -107 1048 c 0xe0
 -107 1072 -206 1114 -224 1123 c 1
 -224 1146 l 1
 -145 1216 l 1
 -188 1234 -228 1260 -228 1312 c 0
 -228 1364 -166 1395 -120 1395 c 0
 -56 1395 -10 1346 -10 1290 c 0
 -10 1256 -32 1224 -57 1198 c 0xd0
-105 1327 m 0
 -113 1327 -129 1319 -129 1300 c 0
 -129 1285 -120 1271 -108 1262 c 1
 -99 1276 -92 1292 -92 1311 c 0xd0
 -92 1324 -98 1327 -105 1327 c 0
EndSplineSet
Position2: "Single Positioning lookup 35 subtable" dx=-298 dy=0 dh=0 dv=0
Position2: "Single Positioning lookup 34 subtable" dx=-287 dy=0 dh=0 dv=0
Position2: "Single Positioning lookup 33 subtable" dx=-274 dy=0 dh=0 dv=0
Position2: "Single Positioning lookup 32 subtable" dx=-265 dy=0 dh=0 dv=0
Position2: "Single Positioning lookup 31 subtable" dx=-257 dy=0 dh=0 dv=0
Position2: "Single Positioning lookup 30 subtable" dx=-249 dy=0 dh=0 dv=0
Position2: "Single Positioning lookup 29 subtable" dx=-238 dy=0 dh=0 dv=0
Position2: "Single Positioning lookup 28 subtable" dx=-229 dy=0 dh=0 dv=0
Position2: "Single Positioning lookup 27 per glyph data 0" dx=-223 dy=0 dh=0 dv=0
Position2: "Single Positioning lookup 26 per glyph data 0" dx=-315 dy=0 dh=0 dv=0
Position2: "Single Positioning lookup 25 per glyph data 0" dx=-306 dy=0 dh=0 dv=0
Position2: "Single Positioning lookup 24 subtable" dx=-293 dy=0 dh=0 dv=0
Position2: "Single Positioning lookup 23 subtable" dx=-284 dy=0 dh=0 dv=0
Position2: "Single Positioning lookup 22 subtable" dx=-274 dy=0 dh=0 dv=0
Position2: "Single Positioning lookup 21 subtable" dx=-267 dy=0 dh=0 dv=0
Position2: "Single Positioning lookup 20 subtable" dx=-250 dy=0 dh=0 dv=0
Position2: "Single Positioning lookup 19 subtable" dx=-236 dy=0 dh=0 dv=0
Position2: "Single Positioning lookup 18 subtable" dx=-227 dy=0 dh=0 dv=0
Position2: "Single Positioning lookup 17 per glyph data 0" dx=-335 dy=0 dh=0 dv=0
Position2: "Single Positioning lookup 16 subtable" dx=-326 dy=0 dh=0 dv=0
Position2: "Single Positioning lookup 15 subtable" dx=-314 dy=0 dh=0 dv=0
Position2: "Single Positioning lookup 14 subtable" dx=-303 dy=0 dh=0 dv=0
Position2: "Single Positioning lookup 13 per glyph data 0" dx=-296 dy=0 dh=0 dv=0
Position2: "Single Positioning lookup 12 subtable" dx=-288 dy=0 dh=0 dv=0
Position2: "Single Positioning lookup 11 subtable" dx=-263 dy=0 dh=0 dv=0
Position2: "Single Positioning lookup 10 subtable" dx=-244 dy=0 dh=0 dv=0
Position2: "Single Positioning lookup 9 subtable" dx=-232 dy=0 dh=0 dv=0
Position2: "Single Positioning lookup 8 subtable" dx=-358 dy=0 dh=0 dv=0
Position2: "Single Positioning lookup 7 per glyph data 0" dx=-347 dy=0 dh=0 dv=0
Position2: "Single Positioning lookup 6 subtable" dx=-336 dy=0 dh=0 dv=0
Position2: "Single Positioning lookup 5 subtable" dx=-326 dy=0 dh=0 dv=0
Position2: "Single Positioning lookup 4 subtable" dx=-319 dy=0 dh=0 dv=0
Position2: "Single Positioning lookup 3 subtable" dx=-311 dy=0 dh=0 dv=0
Position2: "Single Positioning lookup 2 per glyph data 0" dx=-278 dy=0 dh=0 dv=0
Position2: "Single Positioning lookup 1 subtable" dx=-254 dy=0 dh=0 dv=0
Position2: "Single Positioning lookup 0 subtable" dx=-238 dy=0 dh=0 dv=0
EndChar

StartChar: uniA8E2
Encoding: 43234 43234 184
Width: 0
GlyphClass: 4
Flags: W
HStem: 983 85<-85.3982 -10.334> 1154 69<-129 -104.371> 1344 69<-165.357 -97.9059>
VStem: -244 96<1224 1261.91> -91 101<1232.16 1337.93>
LayerCount: 2
Fore
SplineSet
-125 1154 m 0
 -126 1154 -128 1154 -129 1154 c 1
 -110 1099 -62 1068 -52 1068 c 2
 -33 1068 l 2
 -19 1068 -1 1035 -1 1019 c 0
 -1 988 -26 983 -53 983 c 0
 -123 983 -190 1097 -203 1180 c 1
 -207 1181 l 2
 -229 1190 -244 1205 -244 1229 c 0
 -244 1259 -212 1269 -197 1269 c 0
 -167 1269 -153 1251 -148 1228 c 2
 -147 1224 l 1
 -142 1223 -136 1223 -129 1223 c 0
 -116 1223 -91 1248 -91 1294 c 0
 -91 1329 -114 1344 -134 1344 c 0
 -165 1344 -170 1299 -200 1299 c 0
 -209 1299 -248 1350 -248 1363 c 0
 -248 1374 -202 1413 -134 1413 c 0
 -65 1413 10 1362 10 1286 c 0
 10 1201 -63 1154 -125 1154 c 0
EndSplineSet
Position2: "Single Positioning lookup 35 subtable" dx=-303 dy=0 dh=0 dv=0
Position2: "Single Positioning lookup 34 subtable" dx=-296 dy=0 dh=0 dv=0
Position2: "Single Positioning lookup 33 subtable" dx=-287 dy=0 dh=0 dv=0
Position2: "Single Positioning lookup 32 subtable" dx=-278 dy=0 dh=0 dv=0
Position2: "Single Positioning lookup 31 subtable" dx=-270 dy=0 dh=0 dv=0
Position2: "Single Positioning lookup 30 subtable" dx=-262 dy=0 dh=0 dv=0
Position2: "Single Positioning lookup 29 subtable" dx=-249 dy=0 dh=0 dv=0
Position2: "Single Positioning lookup 28 subtable" dx=-240 dy=0 dh=0 dv=0
Position2: "Single Positioning lookup 27 per glyph data 0" dx=-232 dy=0 dh=0 dv=0
Position2: "Single Positioning lookup 26 per glyph data 0" dx=-323 dy=0 dh=0 dv=0
Position2: "Single Positioning lookup 25 per glyph data 0" dx=-317 dy=0 dh=0 dv=0
Position2: "Single Positioning lookup 24 subtable" dx=-309 dy=0 dh=0 dv=0
Position2: "Single Positioning lookup 23 subtable" dx=-301 dy=0 dh=0 dv=0
Position2: "Single Positioning lookup 22 subtable" dx=-293 dy=0 dh=0 dv=0
Position2: "Single Positioning lookup 21 subtable" dx=-287 dy=0 dh=0 dv=0
Position2: "Single Positioning lookup 20 subtable" dx=-267 dy=0 dh=0 dv=0
Position2: "Single Positioning lookup 19 subtable" dx=-252 dy=0 dh=0 dv=0
Position2: "Single Positioning lookup 18 subtable" dx=-243 dy=0 dh=0 dv=0
Position2: "Single Positioning lookup 17 per glyph data 0" dx=-345 dy=0 dh=0 dv=0
Position2: "Single Positioning lookup 16 subtable" dx=-339 dy=0 dh=0 dv=0
Position2: "Single Positioning lookup 15 subtable" dx=-333 dy=0 dh=0 dv=0
Position2: "Single Positioning lookup 14 subtable" dx=-325 dy=0 dh=0 dv=0
Position2: "Single Positioning lookup 13 per glyph data 0" dx=-320 dy=0 dh=0 dv=0
Position2: "Single Positioning lookup 12 subtable" dx=-314 dy=0 dh=0 dv=0
Position2: "Single Positioning lookup 11 subtable" dx=-288 dy=0 dh=0 dv=0
Position2: "Single Positioning lookup 10 subtable" dx=-267 dy=0 dh=0 dv=0
Position2: "Single Positioning lookup 9 subtable" dx=-255 dy=0 dh=0 dv=0
Position2: "Single Positioning lookup 8 subtable" dx=-370 dy=0 dh=0 dv=0
Position2: "Single Positioning lookup 7 per glyph data 0" dx=-363 dy=0 dh=0 dv=0
Position2: "Single Positioning lookup 6 subtable" dx=-358 dy=0 dh=0 dv=0
Position2: "Single Positioning lookup 5 subtable" dx=-353 dy=0 dh=0 dv=0
Position2: "Single Positioning lookup 4 subtable" dx=-348 dy=0 dh=0 dv=0
Position2: "Single Positioning lookup 3 subtable" dx=-344 dy=0 dh=0 dv=0
Position2: "Single Positioning lookup 2 per glyph data 1" dx=-310 dy=0 dh=0 dv=0
Position2: "Single Positioning lookup 1 subtable" dx=-285 dy=0 dh=0 dv=0
Position2: "Single Positioning lookup 0 subtable" dx=-269 dy=0 dh=0 dv=0
EndChar

StartChar: uniA8E3
Encoding: 43235 43235 185
Width: 0
GlyphClass: 4
Flags: W
HStem: 964 80<-103.901 5.78052> 1071 92<-207.891 -157.086> 1071 35<-125 -89.8895> 1205 57<-168.923 -101.609> 1345 50<-155.956 -105.091>
VStem: -223 97<1107 1155.48> -102 102<1261.79 1344.48> -86 102<1106.61 1203.74>
LayerCount: 2
Fore
SplineSet
-132 1071 m 1xbd
 -94 1071 16 1069 16 1136 c 0xbd
 16 1156 7 1204 -32 1234 c 1
 -15 1248 0 1270 0 1301 c 0
 0 1359 -69 1395 -129 1395 c 0
 -197 1395 -243 1356 -243 1345 c 0
 -243 1333 -204 1280 -195 1280 c 0
 -165 1280 -160 1345 -129 1345 c 0
 -104 1345 -102 1320 -102 1301 c 0xbe
 -102 1276 -99 1262 -106 1262 c 0
 -162 1262 -202 1245 -202 1226 c 0
 -202 1218 -186 1188 -170 1188 c 0
 -147 1188 -125 1205 -100 1205 c 0
 -99 1205 -96 1204 -95 1204 c 0
 -92 1199 -86 1180 -86 1142 c 0
 -86 1121 -94 1106 -107 1106 c 0xbd
 -114 1106 -120 1107 -125 1107 c 1
 -126 1122 l 2
 -132 1145 -146 1163 -176 1163 c 0xdd
 -191 1163 -223 1152 -223 1122 c 0
 -223 1095 -191 1078 -166 1069 c 1
 -140 1015 -104 964 -40 964 c 0
 -11 964 12 971 12 1001 c 0
 12 1017 -6 1049 -20 1049 c 0
 -22 1049 -26 1049 -30 1048 c 2
 -40 1046 l 2
 -47 1045 -53 1044 -58 1044 c 0
 -67 1044 -111 1038 -132 1071 c 1xbd
EndSplineSet
Position2: "Single Positioning lookup 35 subtable" dx=-302 dy=0 dh=0 dv=0
Position2: "Single Positioning lookup 34 subtable" dx=-290 dy=0 dh=0 dv=0
Position2: "Single Positioning lookup 33 subtable" dx=-275 dy=0 dh=0 dv=0
Position2: "Single Positioning lookup 32 subtable" dx=-270 dy=0 dh=0 dv=0
Position2: "Single Positioning lookup 31 subtable" dx=-265 dy=0 dh=0 dv=0
Position2: "Single Positioning lookup 30 subtable" dx=-260 dy=0 dh=0 dv=0
Position2: "Single Positioning lookup 29 subtable" dx=-244 dy=0 dh=0 dv=0
Position2: "Single Positioning lookup 28 subtable" dx=-234 dy=0 dh=0 dv=0
Position2: "Single Positioning lookup 27 per glyph data 0" dx=-225 dy=0 dh=0 dv=0
Position2: "Single Positioning lookup 26 per glyph data 0" dx=-315 dy=0 dh=0 dv=0
Position2: "Single Positioning lookup 25 per glyph data 0" dx=-308 dy=0 dh=0 dv=0
Position2: "Single Positioning lookup 24 subtable" dx=-298 dy=0 dh=0 dv=0
Position2: "Single Positioning lookup 23 subtable" dx=-291 dy=0 dh=0 dv=0
Position2: "Single Positioning lookup 22 subtable" dx=-284 dy=0 dh=0 dv=0
Position2: "Single Positioning lookup 21 subtable" dx=-279 dy=0 dh=0 dv=0
Position2: "Single Positioning lookup 20 subtable" dx=-260 dy=0 dh=0 dv=0
Position2: "Single Positioning lookup 19 subtable" dx=-243 dy=0 dh=0 dv=0
Position2: "Single Positioning lookup 18 subtable" dx=-234 dy=0 dh=0 dv=0
Position2: "Single Positioning lookup 17 per glyph data 0" dx=-331 dy=0 dh=0 dv=0
Position2: "Single Positioning lookup 16 subtable" dx=-329 dy=0 dh=0 dv=0
Position2: "Single Positioning lookup 15 subtable" dx=-323 dy=0 dh=0 dv=0
Position2: "Single Positioning lookup 14 subtable" dx=-314 dy=0 dh=0 dv=0
Position2: "Single Positioning lookup 13 per glyph data 0" dx=-308 dy=0 dh=0 dv=0
Position2: "Single Positioning lookup 12 subtable" dx=-301 dy=0 dh=0 dv=0
Position2: "Single Positioning lookup 11 subtable" dx=-275 dy=0 dh=0 dv=0
Position2: "Single Positioning lookup 10 subtable" dx=-254 dy=0 dh=0 dv=0
Position2: "Single Positioning lookup 9 subtable" dx=-242 dy=0 dh=0 dv=0
Position2: "Single Positioning lookup 8 subtable" dx=-349 dy=0 dh=0 dv=0
Position2: "Single Positioning lookup 7 per glyph data 0" dx=-349 dy=0 dh=0 dv=0
Position2: "Single Positioning lookup 6 subtable" dx=-350 dy=0 dh=0 dv=0
Position2: "Single Positioning lookup 5 subtable" dx=-341 dy=0 dh=0 dv=0
Position2: "Single Positioning lookup 4 subtable" dx=-333 dy=0 dh=0 dv=0
Position2: "Single Positioning lookup 3 subtable" dx=-325 dy=0 dh=0 dv=0
Position2: "Single Positioning lookup 2 per glyph data 0" dx=-293 dy=0 dh=0 dv=0
Position2: "Single Positioning lookup 1 subtable" dx=-269 dy=0 dh=0 dv=0
Position2: "Single Positioning lookup 0 subtable" dx=-252 dy=0 dh=0 dv=0
EndChar

StartChar: uniA8E4
Encoding: 43236 43236 186
Width: 0
GlyphClass: 4
Flags: W
HStem: 1060 64<-140.311 -101.508>
VStem: -234 91<1124.07 1217.18> -100 89<1124.21 1210.82>
LayerCount: 2
Fore
SplineSet
-73 1259 m 1
 -41 1228 -11 1188 -11 1150 c 0
 -11 1091 -67 1060 -122 1060 c 0
 -197 1060 -234 1107 -234 1155 c 0
 -234 1194 -219 1226 -177 1267 c 1
 -226 1306 -297 1353 -310 1362 c 1
 -310 1362 -318 1370 -318 1377 c 0
 -318 1395 -280 1420 -261 1420 c 0
 -256 1420 -187 1366 -133 1318 c 1
 -117 1334 -29 1422 -17 1422 c 0
 -9 1422 45 1402 45 1374 c 0
 45 1370 -6 1318 -73 1259 c 1
-121 1218 m 1
 -131 1204 -143 1183 -143 1162 c 0
 -143 1131 -132 1124 -122 1124 c 0
 -112 1124 -100 1132 -100 1162 c 0
 -100 1177 -108 1200 -121 1218 c 1
EndSplineSet
Position2: "Single Positioning lookup 35 subtable" dx=-336 dy=0 dh=0 dv=0
Position2: "Single Positioning lookup 34 subtable" dx=-331 dy=0 dh=0 dv=0
Position2: "Single Positioning lookup 33 subtable" dx=-323 dy=0 dh=0 dv=0
Position2: "Single Positioning lookup 32 subtable" dx=-311 dy=0 dh=0 dv=0
Position2: "Single Positioning lookup 31 subtable" dx=-299 dy=0 dh=0 dv=0
Position2: "Single Positioning lookup 30 subtable" dx=-289 dy=0 dh=0 dv=0
Position2: "Single Positioning lookup 29 subtable" dx=-278 dy=0 dh=0 dv=0
Position2: "Single Positioning lookup 28 subtable" dx=-271 dy=0 dh=0 dv=0
Position2: "Single Positioning lookup 27 per glyph data 0" dx=-264 dy=0 dh=0 dv=0
Position2: "Single Positioning lookup 26 per glyph data 0" dx=-356 dy=0 dh=0 dv=0
Position2: "Single Positioning lookup 25 per glyph data 0" dx=-350 dy=0 dh=0 dv=0
Position2: "Single Positioning lookup 24 subtable" dx=-344 dy=0 dh=0 dv=0
Position2: "Single Positioning lookup 23 subtable" dx=-333 dy=0 dh=0 dv=0
Position2: "Single Positioning lookup 22 subtable" dx=-322 dy=0 dh=0 dv=0
Position2: "Single Positioning lookup 21 subtable" dx=-314 dy=0 dh=0 dv=0
Position2: "Single Positioning lookup 20 subtable" dx=-296 dy=0 dh=0 dv=0
Position2: "Single Positioning lookup 19 subtable" dx=-282 dy=0 dh=0 dv=0
Position2: "Single Positioning lookup 18 subtable" dx=-273 dy=0 dh=0 dv=0
Position2: "Single Positioning lookup 17 per glyph data 0" dx=-377 dy=0 dh=0 dv=0
Position2: "Single Positioning lookup 16 subtable" dx=-372 dy=0 dh=0 dv=0
Position2: "Single Positioning lookup 15 subtable" dx=-367 dy=0 dh=0 dv=0
Position2: "Single Positioning lookup 14 subtable" dx=-356 dy=0 dh=0 dv=0
Position2: "Single Positioning lookup 13 per glyph data 0" dx=-348 dy=0 dh=0 dv=0
Position2: "Single Positioning lookup 12 subtable" dx=-341 dy=0 dh=0 dv=0
Position2: "Single Positioning lookup 11 subtable" dx=-314 dy=0 dh=0 dv=0
Position2: "Single Positioning lookup 10 subtable" dx=-295 dy=0 dh=0 dv=0
Position2: "Single Positioning lookup 9 subtable" dx=-283 dy=0 dh=0 dv=0
Position2: "Single Positioning lookup 8 subtable" dx=-402 dy=0 dh=0 dv=0
Position2: "Single Positioning lookup 7 per glyph data 0" dx=-396 dy=0 dh=0 dv=0
Position2: "Single Positioning lookup 6 subtable" dx=-391 dy=0 dh=0 dv=0
Position2: "Single Positioning lookup 5 subtable" dx=-383 dy=0 dh=0 dv=0
Position2: "Single Positioning lookup 4 subtable" dx=-377 dy=0 dh=0 dv=0
Position2: "Single Positioning lookup 3 subtable" dx=-370 dy=0 dh=0 dv=0
Position2: "Single Positioning lookup 2 per glyph data 0" dx=-335 dy=0 dh=0 dv=0
Position2: "Single Positioning lookup 1 subtable" dx=-310 dy=0 dh=0 dv=0
Position2: "Single Positioning lookup 0 subtable" dx=-294 dy=0 dh=0 dv=0
EndChar

StartChar: uniA8E5
Encoding: 43237 43237 187
Width: 0
GlyphClass: 4
Flags: W
HStem: 1134 65<-202.188 -137.868>
VStem: -309 102<1201.02 1309.87> -165 98<1228.15 1294.66> -84 77<1112.06 1170.04>
LayerCount: 2
Fore
SplineSet
-133 1363 m 1xd0
 -133 1364 l 1
 -130 1351 -137 1343 -148 1341 c 0
 -170 1332 -207 1295 -207 1258 c 0
 -207 1207 -191 1199 -177 1199 c 0
 -159 1199 -145 1209 -137 1221 c 1
 -154 1232 -165 1245 -165 1261 c 0
 -165 1284 -144 1305 -118 1305 c 0
 -84 1305 -68 1274 -67 1248 c 1xe0
 -30 1216 -7 1182 -7 1134 c 0
 -7 1108 -31 1027 -74 1027 c 0
 -93 1027 -133 1056 -133 1077 c 0
 -133 1100 -84 1117 -84 1142 c 0
 -84 1152 -87 1162 -91 1171 c 1
 -115 1146 -153 1134 -177 1134 c 0
 -244 1134 -309 1190 -309 1258 c 0
 -309 1344 -204 1399 -175 1399 c 1
 -175 1399 -137 1377 -133 1363 c 1xd0
EndSplineSet
Position2: "Single Positioning lookup 35 subtable" dx=-348 dy=0 dh=0 dv=0
Position2: "Single Positioning lookup 34 subtable" dx=-334 dy=0 dh=0 dv=0
Position2: "Single Positioning lookup 33 subtable" dx=-318 dy=0 dh=0 dv=0
Position2: "Single Positioning lookup 32 subtable" dx=-308 dy=0 dh=0 dv=0
Position2: "Single Positioning lookup 31 subtable" dx=-298 dy=0 dh=0 dv=0
Position2: "Single Positioning lookup 30 subtable" dx=-289 dy=0 dh=0 dv=0
Position2: "Single Positioning lookup 29 subtable" dx=-272 dy=0 dh=0 dv=0
Position2: "Single Positioning lookup 28 subtable" dx=-259 dy=0 dh=0 dv=0
Position2: "Single Positioning lookup 27 per glyph data 0" dx=-250 dy=0 dh=0 dv=0
Position2: "Single Positioning lookup 26 per glyph data 0" dx=-367 dy=0 dh=0 dv=0
Position2: "Single Positioning lookup 25 per glyph data 0" dx=-357 dy=0 dh=0 dv=0
Position2: "Single Positioning lookup 24 subtable" dx=-346 dy=0 dh=0 dv=0
Position2: "Single Positioning lookup 23 subtable" dx=-337 dy=0 dh=0 dv=0
Position2: "Single Positioning lookup 22 subtable" dx=-326 dy=0 dh=0 dv=0
Position2: "Single Positioning lookup 21 subtable" dx=-321 dy=0 dh=0 dv=0
Position2: "Single Positioning lookup 20 subtable" dx=-296 dy=0 dh=0 dv=0
Position2: "Single Positioning lookup 19 subtable" dx=-276 dy=0 dh=0 dv=0
Position2: "Single Positioning lookup 18 subtable" dx=-265 dy=0 dh=0 dv=0
Position2: "Single Positioning lookup 17 per glyph data 0" dx=-387 dy=0 dh=0 dv=0
Position2: "Single Positioning lookup 16 subtable" dx=-383 dy=0 dh=0 dv=0
Position2: "Single Positioning lookup 15 subtable" dx=-377 dy=0 dh=0 dv=0
Position2: "Single Positioning lookup 14 subtable" dx=-368 dy=0 dh=0 dv=0
Position2: "Single Positioning lookup 13 per glyph data 0" dx=-361 dy=0 dh=0 dv=0
Position2: "Single Positioning lookup 12 subtable" dx=-355 dy=0 dh=0 dv=0
Position2: "Single Positioning lookup 11 subtable" dx=-321 dy=0 dh=0 dv=0
Position2: "Single Positioning lookup 10 subtable" dx=-296 dy=0 dh=0 dv=0
Position2: "Single Positioning lookup 9 subtable" dx=-281 dy=0 dh=0 dv=0
Position2: "Single Positioning lookup 8 subtable" dx=-411 dy=0 dh=0 dv=0
Position2: "Single Positioning lookup 7 per glyph data 0" dx=-410 dy=0 dh=0 dv=0
Position2: "Single Positioning lookup 6 subtable" dx=-410 dy=0 dh=0 dv=0
Position2: "Single Positioning lookup 5 subtable" dx=-403 dy=0 dh=0 dv=0
Position2: "Single Positioning lookup 4 subtable" dx=-397 dy=0 dh=0 dv=0
Position2: "Single Positioning lookup 3 subtable" dx=-392 dy=0 dh=0 dv=0
Position2: "Single Positioning lookup 2 per glyph data 0" dx=-349 dy=0 dh=0 dv=0
Position2: "Single Positioning lookup 1 subtable" dx=-319 dy=0 dh=0 dv=0
Position2: "Single Positioning lookup 0 subtable" dx=-298 dy=0 dh=0 dv=0
EndChar

StartChar: uniA8E6
Encoding: 43238 43238 188
Width: 0
GlyphClass: 4
Flags: W
HStem: 1065 64<-124.098 -98> 1212 63<-126.22 -49.2698> 1328 64<-145.988 -93.8545>
VStem: -244 98<1272.67 1326.93> -227 100<1130.15 1211.24> -98 95<1130.24 1186.21>
LayerCount: 2
Fore
SplineSet
-13 1010 m 0xec
 -34 1010 -59 1055 -68 1072 c 1
 -80 1067 -93 1065 -107 1065 c 0
 -108 1065 -227 1067 -227 1162 c 0xec
 -227 1182 -220 1209 -195 1232 c 1
 -220 1252 -244 1277 -244 1307 c 0
 -244 1360 -187 1392 -130 1392 c 0
 -62 1392 -14 1355 -14 1342 c 0
 -14 1331 -50 1282 -59 1282 c 0
 -88 1282 -97 1328 -128 1328 c 0
 -134 1328 -146 1320 -146 1307 c 0xf4
 -146 1292 -142 1281 -136 1272 c 1
 -125 1274 -114 1275 -98 1275 c 0
 -53 1275 -31 1254 -31 1233 c 0
 -31 1222 -40 1202 -59 1202 c 0
 -74 1202 -85 1212 -100 1212 c 0
 -130 1212 -127 1188 -127 1168 c 0
 -127 1132 -108 1129 -98 1129 c 2
 -95 1130 l 1
 -97 1135 -98 1141 -98 1148 c 0
 -98 1178 -72 1194 -50 1194 c 0
 -23 1194 -3 1172 -3 1151 c 0
 -3 1140 -9 1127 -15 1118 c 1
 -9 1086 7 1081 22 1058 c 0
 24 1053 26 1049 26 1043 c 0
 26 1022 8 1010 -13 1010 c 0xec
EndSplineSet
Position2: "Single Positioning lookup 35 subtable" dx=-331 dy=0 dh=0 dv=0
Position2: "Single Positioning lookup 34 subtable" dx=-321 dy=0 dh=0 dv=0
Position2: "Single Positioning lookup 33 subtable" dx=-308 dy=0 dh=0 dv=0
Position2: "Single Positioning lookup 32 subtable" dx=-300 dy=0 dh=0 dv=0
Position2: "Single Positioning lookup 31 subtable" dx=-293 dy=0 dh=0 dv=0
Position2: "Single Positioning lookup 30 subtable" dx=-286 dy=0 dh=0 dv=0
Position2: "Single Positioning lookup 29 subtable" dx=-269 dy=0 dh=0 dv=0
Position2: "Single Positioning lookup 28 subtable" dx=-255 dy=0 dh=0 dv=0
Position2: "Single Positioning lookup 27 per glyph data 1" dx=-246 dy=0 dh=0 dv=0
Position2: "Single Positioning lookup 26 per glyph data 0" dx=-346 dy=0 dh=0 dv=0
Position2: "Single Positioning lookup 25 per glyph data 0" dx=-337 dy=0 dh=0 dv=0
Position2: "Single Positioning lookup 24 subtable" dx=-325 dy=0 dh=0 dv=0
Position2: "Single Positioning lookup 23 subtable" dx=-319 dy=0 dh=0 dv=0
Position2: "Single Positioning lookup 22 subtable" dx=-312 dy=0 dh=0 dv=0
Position2: "Single Positioning lookup 21 subtable" dx=-308 dy=0 dh=0 dv=0
Position2: "Single Positioning lookup 20 subtable" dx=-287 dy=0 dh=0 dv=0
Position2: "Single Positioning lookup 19 subtable" dx=-272 dy=0 dh=0 dv=0
Position2: "Single Positioning lookup 18 subtable" dx=-262 dy=0 dh=0 dv=0
Position2: "Single Positioning lookup 17 per glyph data 0" dx=-363 dy=0 dh=0 dv=0
Position2: "Single Positioning lookup 16 subtable" dx=-355 dy=0 dh=0 dv=0
Position2: "Single Positioning lookup 15 subtable" dx=-345 dy=0 dh=0 dv=0
Position2: "Single Positioning lookup 14 subtable" dx=-338 dy=0 dh=0 dv=0
Position2: "Single Positioning lookup 13 per glyph data 0" dx=-335 dy=0 dh=0 dv=0
Position2: "Single Positioning lookup 12 subtable" dx=-331 dy=0 dh=0 dv=0
Position2: "Single Positioning lookup 11 subtable" dx=-308 dy=0 dh=0 dv=0
Position2: "Single Positioning lookup 10 subtable" dx=-290 dy=0 dh=0 dv=0
Position2: "Single Positioning lookup 9 subtable" dx=-279 dy=0 dh=0 dv=0
Position2: "Single Positioning lookup 8 subtable" dx=-383 dy=0 dh=0 dv=0
Position2: "Single Positioning lookup 7 per glyph data 0" dx=-374 dy=0 dh=0 dv=0
Position2: "Single Positioning lookup 6 subtable" dx=-365 dy=0 dh=0 dv=0
Position2: "Single Positioning lookup 5 subtable" dx=-361 dy=0 dh=0 dv=0
Position2: "Single Positioning lookup 4 subtable" dx=-359 dy=0 dh=0 dv=0
Position2: "Single Positioning lookup 3 subtable" dx=-357 dy=0 dh=0 dv=0
Position2: "Single Positioning lookup 2 per glyph data 0" dx=-331 dy=0 dh=0 dv=0
Position2: "Single Positioning lookup 1 subtable" dx=-311 dy=0 dh=0 dv=0
Position2: "Single Positioning lookup 0 subtable" dx=-298 dy=0 dh=0 dv=0
EndChar

StartChar: uniA8E7
Encoding: 43239 43239 189
Width: 0
GlyphClass: 4
Flags: W
HStem: 1068 81<-197.513 -89.7706> 1320 61<-128.001 -86.3756>
VStem: -374 80<1280.46 1382.62> -214 85<1266.29 1319.63> -79 102<1160.6 1201.13 1257 1315.6>
LayerCount: 2
Fore
SplineSet
-129 1068 m 0
 -300 1068 -374 1320 -374 1360 c 0
 -374 1376 -368 1386 -338 1386 c 0
 -312 1386 -300 1378 -294 1354 c 0
 -263 1219 -216 1149 -129 1149 c 0
 -105 1149 -86 1160 -79 1199 c 1
 -152 1205 -214 1227 -214 1291 c 0
 -214 1358 -152 1381 -108 1381 c 0
 -12 1381 23 1294 23 1233 c 0
 23 1113 -72 1068 -129 1068 c 0
-112 1320 m 0
 -117 1320 -129 1315 -129 1291 c 0
 -129 1279 -114 1263 -75 1257 c 1
 -81 1312 -105 1320 -112 1320 c 0
EndSplineSet
Position2: "Single Positioning lookup 35 subtable" dx=-350 dy=0 dh=0 dv=0
Position2: "Single Positioning lookup 34 subtable" dx=-339 dy=0 dh=0 dv=0
Position2: "Single Positioning lookup 33 subtable" dx=-325 dy=0 dh=0 dv=0
Position2: "Single Positioning lookup 32 subtable" dx=-315 dy=0 dh=0 dv=0
Position2: "Single Positioning lookup 31 subtable" dx=-307 dy=0 dh=0 dv=0
Position2: "Single Positioning lookup 30 subtable" dx=-298 dy=0 dh=0 dv=0
Position2: "Single Positioning lookup 29 subtable" dx=-282 dy=0 dh=0 dv=0
Position2: "Single Positioning lookup 28 subtable" dx=-270 dy=0 dh=0 dv=0
Position2: "Single Positioning lookup 27 per glyph data 0" dx=-261 dy=0 dh=0 dv=0
Position2: "Single Positioning lookup 26 per glyph data 0" dx=-370 dy=0 dh=0 dv=0
Position2: "Single Positioning lookup 25 per glyph data 0" dx=-360 dy=0 dh=0 dv=0
Position2: "Single Positioning lookup 24 subtable" dx=-347 dy=0 dh=0 dv=0
Position2: "Single Positioning lookup 23 subtable" dx=-338 dy=0 dh=0 dv=0
Position2: "Single Positioning lookup 22 subtable" dx=-327 dy=0 dh=0 dv=0
Position2: "Single Positioning lookup 21 subtable" dx=-321 dy=0 dh=0 dv=0
Position2: "Single Positioning lookup 20 subtable" dx=-301 dy=0 dh=0 dv=0
Position2: "Single Positioning lookup 19 subtable" dx=-285 dy=0 dh=0 dv=0
Position2: "Single Positioning lookup 18 subtable" dx=-276 dy=0 dh=0 dv=0
Position2: "Single Positioning lookup 17 per glyph data 0" dx=-392 dy=0 dh=0 dv=0
Position2: "Single Positioning lookup 16 subtable" dx=-383 dy=0 dh=0 dv=0
Position2: "Single Positioning lookup 15 subtable" dx=-371 dy=0 dh=0 dv=0
Position2: "Single Positioning lookup 14 subtable" dx=-361 dy=0 dh=0 dv=0
Position2: "Single Positioning lookup 13 per glyph data 0" dx=-354 dy=0 dh=0 dv=0
Position2: "Single Positioning lookup 12 subtable" dx=-347 dy=0 dh=0 dv=0
Position2: "Single Positioning lookup 11 subtable" dx=-322 dy=0 dh=0 dv=0
Position2: "Single Positioning lookup 10 subtable" dx=-303 dy=0 dh=0 dv=0
Position2: "Single Positioning lookup 9 subtable" dx=-291 dy=0 dh=0 dv=0
Position2: "Single Positioning lookup 8 subtable" dx=-418 dy=0 dh=0 dv=0
Position2: "Single Positioning lookup 7 per glyph data 0" dx=-408 dy=0 dh=0 dv=0
Position2: "Single Positioning lookup 6 subtable" dx=-397 dy=0 dh=0 dv=0
Position2: "Single Positioning lookup 5 subtable" dx=-389 dy=0 dh=0 dv=0
Position2: "Single Positioning lookup 4 subtable" dx=-381 dy=0 dh=0 dv=0
Position2: "Single Positioning lookup 3 subtable" dx=-374 dy=0 dh=0 dv=0
Position2: "Single Positioning lookup 2 per glyph data 0" dx=-345 dy=0 dh=0 dv=0
Position2: "Single Positioning lookup 1 subtable" dx=-323 dy=0 dh=0 dv=0
Position2: "Single Positioning lookup 0 subtable" dx=-309 dy=0 dh=0 dv=0
EndChar

StartChar: uniA8E8
Encoding: 43240 43240 190
Width: 0
GlyphClass: 4
Flags: W
HStem: 1064 65<-150.262 -50.2423>
VStem: -254 96<1135.65 1238.16>
LayerCount: 2
Fore
SplineSet
-102 1064 m 0
 -200 1064 -254 1107 -254 1184 c 0
 -254 1252 -147 1362 -99 1410 c 0
 -94 1415 -87 1419 -78 1419 c 0
 -53 1419 -25 1385 -22 1367 c 1
 -77 1308 -110 1273 -131 1246 c 0
 -151 1220 -158 1203 -158 1184 c 0
 -158 1154 -152 1129 -102 1129 c 0
 -44 1129 -53 1166 -26 1166 c 0
 -1 1166 24 1130 24 1116 c 0
 24 1114 -28 1064 -102 1064 c 0
EndSplineSet
Position2: "Single Positioning lookup 35 subtable" dx=-339 dy=0 dh=0 dv=0
Position2: "Single Positioning lookup 34 subtable" dx=-338 dy=0 dh=0 dv=0
Position2: "Single Positioning lookup 33 subtable" dx=-337 dy=0 dh=0 dv=0
Position2: "Single Positioning lookup 32 subtable" dx=-325 dy=0 dh=0 dv=0
Position2: "Single Positioning lookup 31 subtable" dx=-313 dy=0 dh=0 dv=0
Position2: "Single Positioning lookup 30 subtable" dx=-303 dy=0 dh=0 dv=0
Position2: "Single Positioning lookup 29 subtable" dx=-289 dy=0 dh=0 dv=0
Position2: "Single Positioning lookup 28 subtable" dx=-279 dy=0 dh=0 dv=0
Position2: "Single Positioning lookup 27 per glyph data 0" dx=-272 dy=0 dh=0 dv=0
Position2: "Single Positioning lookup 26 per glyph data 0" dx=-365 dy=0 dh=0 dv=0
Position2: "Single Positioning lookup 25 per glyph data 0" dx=-360 dy=0 dh=0 dv=0
Position2: "Single Positioning lookup 24 subtable" dx=-354 dy=0 dh=0 dv=0
Position2: "Single Positioning lookup 23 subtable" dx=-345 dy=0 dh=0 dv=0
Position2: "Single Positioning lookup 22 subtable" dx=-334 dy=0 dh=0 dv=0
Position2: "Single Positioning lookup 21 subtable" dx=-327 dy=0 dh=0 dv=0
Position2: "Single Positioning lookup 20 subtable" dx=-309 dy=0 dh=0 dv=0
Position2: "Single Positioning lookup 19 subtable" dx=-295 dy=0 dh=0 dv=0
Position2: "Single Positioning lookup 18 subtable" dx=-286 dy=0 dh=0 dv=0
Position2: "Single Positioning lookup 17 per glyph data 0" dx=-392 dy=0 dh=0 dv=0
Position2: "Single Positioning lookup 16 subtable" dx=-383 dy=0 dh=0 dv=0
Position2: "Single Positioning lookup 15 subtable" dx=-372 dy=0 dh=0 dv=0
Position2: "Single Positioning lookup 14 subtable" dx=-365 dy=0 dh=0 dv=0
Position2: "Single Positioning lookup 13 per glyph data 0" dx=-359 dy=0 dh=0 dv=0
Position2: "Single Positioning lookup 12 subtable" dx=-353 dy=0 dh=0 dv=0
Position2: "Single Positioning lookup 11 subtable" dx=-330 dy=0 dh=0 dv=0
Position2: "Single Positioning lookup 10 subtable" dx=-312 dy=0 dh=0 dv=0
Position2: "Single Positioning lookup 9 subtable" dx=-301 dy=0 dh=0 dv=0
Position2: "Single Positioning lookup 8 subtable" dx=-424 dy=0 dh=0 dv=0
Position2: "Single Positioning lookup 7 per glyph data 0" dx=-408 dy=0 dh=0 dv=0
Position2: "Single Positioning lookup 6 subtable" dx=-392 dy=0 dh=0 dv=0
Position2: "Single Positioning lookup 5 subtable" dx=-387 dy=0 dh=0 dv=0
Position2: "Single Positioning lookup 4 subtable" dx=-384 dy=0 dh=0 dv=0
Position2: "Single Positioning lookup 3 subtable" dx=-381 dy=0 dh=0 dv=0
Position2: "Single Positioning lookup 2 per glyph data 0" dx=-353 dy=0 dh=0 dv=0
Position2: "Single Positioning lookup 1 subtable" dx=-332 dy=0 dh=0 dv=0
Position2: "Single Positioning lookup 0 subtable" dx=-318 dy=0 dh=0 dv=0
EndChar

StartChar: uniA8E9
Encoding: 43241 43241 191
Width: 0
GlyphClass: 4
Flags: W
HStem: 1328 67<-131.386 -91.1082>
VStem: -220 87<1266.18 1325.75> -91 90<1271.71 1327.7> -67 94<1070.97 1123.98>
LayerCount: 2
Fore
SplineSet
-64 984 m 0xd0
 -87 984 -118 1036 -118 1049 c 0
 -118 1078 -67 1065 -67 1083 c 0xd0
 -67 1139 -220 1200 -220 1304 c 0
 -220 1371 -149 1395 -107 1395 c 0
 -50 1395 -1 1350 -1 1304 c 0xe0
 -1 1268 -24 1237 -62 1211 c 1
 -22 1176 27 1123 27 1079 c 0
 27 1022 -46 984 -64 984 c 0xd0
-104 1328 m 0
 -116 1328 -133 1319 -133 1298 c 0
 -133 1286 -128 1274 -120 1265 c 1
 -106 1277 -91 1295 -91 1317 c 0xe0
 -91 1324 -95 1328 -104 1328 c 0
EndSplineSet
Position2: "Single Positioning lookup 35 subtable" dx=-326 dy=0 dh=0 dv=0
Position2: "Single Positioning lookup 34 subtable" dx=-315 dy=0 dh=0 dv=0
Position2: "Single Positioning lookup 33 subtable" dx=-302 dy=0 dh=0 dv=0
Position2: "Single Positioning lookup 32 subtable" dx=-290 dy=0 dh=0 dv=0
Position2: "Single Positioning lookup 31 subtable" dx=-279 dy=0 dh=0 dv=0
Position2: "Single Positioning lookup 30 subtable" dx=-270 dy=0 dh=0 dv=0
Position2: "Single Positioning lookup 29 subtable" dx=-260 dy=0 dh=0 dv=0
Position2: "Single Positioning lookup 28 subtable" dx=-253 dy=0 dh=0 dv=0
Position2: "Single Positioning lookup 27 per glyph data 0" dx=-248 dy=0 dh=0 dv=0
Position2: "Single Positioning lookup 26 per glyph data 0" dx=-346 dy=0 dh=0 dv=0
Position2: "Single Positioning lookup 25 per glyph data 0" dx=-336 dy=0 dh=0 dv=0
Position2: "Single Positioning lookup 24 subtable" dx=-324 dy=0 dh=0 dv=0
Position2: "Single Positioning lookup 23 subtable" dx=-317 dy=0 dh=0 dv=0
Position2: "Single Positioning lookup 22 subtable" dx=-308 dy=0 dh=0 dv=0
Position2: "Single Positioning lookup 21 subtable" dx=-301 dy=0 dh=0 dv=0
Position2: "Single Positioning lookup 20 subtable" dx=-284 dy=0 dh=0 dv=0
Position2: "Single Positioning lookup 19 subtable" dx=-270 dy=0 dh=0 dv=0
Position2: "Single Positioning lookup 18 subtable" dx=-261 dy=0 dh=0 dv=0
Position2: "Single Positioning lookup 17 per glyph data 0" dx=-368 dy=0 dh=0 dv=0
Position2: "Single Positioning lookup 16 subtable" dx=-359 dy=0 dh=0 dv=0
Position2: "Single Positioning lookup 15 subtable" dx=-348 dy=0 dh=0 dv=0
Position2: "Single Positioning lookup 14 subtable" dx=-343 dy=0 dh=0 dv=0
Position2: "Single Positioning lookup 13 per glyph data 0" dx=-341 dy=0 dh=0 dv=0
Position2: "Single Positioning lookup 12 subtable" dx=-337 dy=0 dh=0 dv=0
Position2: "Single Positioning lookup 11 subtable" dx=-309 dy=0 dh=0 dv=0
Position2: "Single Positioning lookup 10 subtable" dx=-287 dy=0 dh=0 dv=0
Position2: "Single Positioning lookup 9 subtable" dx=-274 dy=0 dh=0 dv=0
Position2: "Single Positioning lookup 8 subtable" dx=-393 dy=0 dh=0 dv=0
Position2: "Single Positioning lookup 7 per glyph data 0" dx=-383 dy=0 dh=0 dv=0
Position2: "Single Positioning lookup 6 subtable" dx=-373 dy=0 dh=0 dv=0
Position2: "Single Positioning lookup 5 subtable" dx=-374 dy=0 dh=0 dv=0
Position2: "Single Positioning lookup 4 subtable" dx=-375 dy=0 dh=0 dv=0
Position2: "Single Positioning lookup 3 subtable" dx=-375 dy=0 dh=0 dv=0
Position2: "Single Positioning lookup 2 per glyph data 0" dx=-336 dy=0 dh=0 dv=0
Position2: "Single Positioning lookup 1 subtable" dx=-308 dy=0 dh=0 dv=0
Position2: "Single Positioning lookup 0 subtable" dx=-289 dy=0 dh=0 dv=0
EndChar

StartChar: uniA8F2
Encoding: 43250 43250 200
Width: 565
Flags: W
HStem: 403 65<175.649 351.091> 515 142<207.625 309.5>
VStem: 190 137<532.722 638.941>
LayerCount: 2
Fore
SplineSet
259 515 m 0
 214 515 190 548 190 586 c 0
 190 623 214 657 259 657 c 0
 304 657 327 623 327 586 c 0
 327 548 303 515 259 515 c 0
286 403 m 0
 128 403 16 511 16 549 c 0
 16 559 26 576 52 576 c 0
 64 576 74 570 82 563 c 2
 88 558 l 2
 142 512 178 468 264 468 c 4
 392 468 425 580 462 580 c 0
 487 580 554 539 554 515 c 0
 554 475 409 403 286 403 c 0
EndSplineSet
EndChar

StartChar: uniA8F3
Encoding: 43251 43251 201
Width: 570
GlyphClass: 2
Flags: W
HStem: 380 72<178.27 346.189> 492 135<204.504 311.942>
VStem: 190 137<507.085 611.671>
AnchorPoint: "Anchor-7" 283 62 basechar 0
AnchorPoint: "Anchor-0" 312 680 basechar 0
LayerCount: 2
Fore
SplineSet
259 492 m 0
 214 492 190 518 190 560 c 0
 190 600 214 627 259 627 c 0
 304 627 327 600 327 560 c 0
 327 518 303 492 259 492 c 0
286 380 m 0
 128 380 16 500 16 541 c 0
 16 552 26 571 52 571 c 0
 64 571 74 564 82 556 c 2
 88 550 l 2
 142 500 178 452 264 452 c 4
 392 452 425 576 462 576 c 0
 487 576 554 530 554 503 c 0
 554 459 409 380 286 380 c 0
545 39 m 1
 340 207 l 2
 310 231 289 217 258 210 c 0
 248 207 237 205 225 208 c 0
 189 217 123 244 113 266 c 1
 113 276 116 285 131 291 c 0
 228 331 290 348 374 278 c 2
 621 72 l 1
 545 39 l 1
EndSplineSet
EndChar

StartChar: uniA8F4
Encoding: 43252 43252 202
Width: 570
GlyphClass: 2
Flags: W
HStem: 81 75<181.36 346.189> 196 138<205.511 311.592> 374 75<181.36 346.189> 489 138<205.511 311.942>
VStem: 190 137<211.515 318.485 504.178 611.485>
AnchorPoint: "Anchor-7" 283 -240 basechar 0
AnchorPoint: "Anchor-0" 312 680 basechar 0
LayerCount: 2
Fore
SplineSet
259 489 m 0
 214 489 190 515 190 558 c 0
 190 600 214 627 259 627 c 0
 304 627 327 600 327 558 c 0
 327 515 303 489 259 489 c 0
286 374 m 0
 128 374 16 497 16 539 c 0
 16 551 26 570 52 570 c 0
 64 570 74 563 82 555 c 2
 88 549 l 2
 142 497 178 449 264 449 c 0
 392 449 425 574 462 574 c 0
 487 574 554 527 554 501 c 0
 554 455 409 374 286 374 c 0
259 196 m 0
 214 196 190 222 190 265 c 0
 190 307 214 334 259 334 c 0
 304 334 327 307 327 265 c 0
 327 223 303 196 259 196 c 0
286 81 m 0
 128 81 16 204 16 246 c 0
 16 258 26 277 52 277 c 0
 64 277 74 270 82 262 c 2
 88 256 l 2
 142 204 178 156 264 156 c 4
 392 156 425 282 462 282 c 0
 487 282 554 235 554 208 c 0
 554 162 409 81 286 81 c 0
545 -267 m 1
 340 -96 l 2
 310 -71 289 -85 258 -92 c 0
 248 -95 237 -97 225 -94 c 0
 189 -85 123 -58 113 -35 c 1
 113 -24 116 -16 131 -9 c 0
 228 32 290 49 374 -23 c 2
 621 -234 l 1
 545 -267 l 1
EndSplineSet
EndChar

StartChar: uniA8F8
Encoding: 43256 43256 206
Width: 657
Flags: W
HStem: 8 44<260.08 374.322> 310 79<226.304 287.927> 464 40<454.886 498.596> 516 40<127.5 206.317>
VStem: 18 136<376.933 503.133> 62 128<135.761 265.026> 314 115<267.427 427.464> 515 115<225.957 426.555>
LayerCount: 2
Fore
SplineSet
123 314 m 1xf7
 68 339 18 360 18 444 c 4
 18 514 94 556 161 556 c 4
 259 556 339 499 339 465 c 0
 339 438 279 411 263 411 c 0
 219 411 222 516 184 516 c 4
 166 516 154 468 154 440 c 4xfb
 154 378 171 380 196 366 c 1
 219 380 224 389 251 389 c 0
 279 389 298 358 298 339 c 0
 298 325 290 315 277 310 c 0
 189 281 190 252 190 222 c 0
 190 145 249 52 312 52 c 0
 380 52 419 119 446 153 c 1
 379 196 314 267 314 348 c 0
 314 408 354 504 479 504 c 0
 584 504 630 409 630 348 c 0
 630 154 494 8 279 8 c 0
 155 8 62 64 62 184 c 0
 62 235 85 279 123 314 c 1xf7
479 464 m 0
 447 464 429 386 429 335 c 0
 429 256 449 215 475 190 c 1
 490 208 515 265 515 335 c 0
 515 399 504 464 479 464 c 0
EndSplineSet
EndChar

StartChar: uniA8F9
Encoding: 43257 43257 207
Width: 656
Flags: W
HStem: 0 42<227.88 385.342> 242 42<465.507 498> 306 40<218.131 266> 459 70<440.28 511.863>
VStem: 39 125<108.292 252.283> 303 125<324.07 450.128> 548 125<221.214 413.621>
LayerCount: 2
Fore
SplineSet
288 0 m 0
 52 0 39 135 39 172 c 0
 39 307 181 346 266 346 c 1
 275 306 l 1
 187 295 164 226 164 172 c 0
 164 120 217 42 290 42 c 4
 444 42 548 178 548 318 c 0
 548 396 510 459 478 459 c 0
 442 459 428 430 428 388 c 0
 428 371 448 293 501 284 c 1
 498 242 l 1
 450 244 429.364437648 243.763262431 386 264 c 0
 341 285 303 323 303 388 c 0
 303 468 392 529 478 529 c 0
 606 529 673 451 673 318 c 0
 673 154 492 0 288 0 c 0
EndSplineSet
EndChar

StartChar: uniA8FA
Encoding: 43258 43258 208
Width: 465
Flags: W
HStem: 688 270
LayerCount: 2
Fore
SplineSet
262 688 m 5
 20 922 l 5
 59 958 l 5
 239 811 l 5
 427 958 l 5
 482 910 l 5
 262 688 l 5
EndSplineSet
EndChar

StartChar: uniA8FB
Encoding: 43259 43259 209
Width: 358
Flags: W
HStem: 617 63<-28.375 391.994>
LayerCount: 2
Fore
SplineSet
0 617 m 2
 -6 617 -8 618 -14 624 c 2
 -54 664 l 2
 -64 674 -61 680 -45 680 c 2
 378 680 l 2
 384 680 392 673 392 673 c 1
 432 633 l 2
 442 623 439 617 423 617 c 2
 0 617 l 2
EndSplineSet
EndChar

StartChar: uniA8FC
Encoding: 43260 43260 210
Width: 826
Flags: W
HStem: 128 58<522.009 664.236> 279 37<644.862 685> 496 47<21.4681 51.5471> 503 49<619.081 706.751>
VStem: 481 125<353.268 482.027> 741 125<263.356 437.917>
LayerCount: 2
Fore
SplineSet
688 316 m 1xdc
 611 326 606 409.4296875 606 436 c 0
 606 473 624 503 662 503 c 0xdc
 733 503 741 390 741 342 c 0
 741 230 635 186 607 186 c 0
 507 186 439 270 357 351 c 0
 259 450 175 504 24 543 c 1
 7 496 l 1xec
 73 469 134 438 221 356 c 0
 269 310 307 273 339 244 c 0
 425 167 478 128 607 128 c 0
 745 128 866 224 866 342 c 0
 866 450 789 552 662 552 c 0
 572 552 481 500 481 416 c 0
 481 291 627 279 685 279 c 1
 688 316 l 1xdc
EndSplineSet
EndChar

StartChar: uniA8FD
Encoding: 43261 43261 211
Width: 560
Flags: W
HStem: -36 86<111.576 313.02> 310 72<206.489 382> 581 99<-20.3055 382 487 582.988> 704 85<39.1472 155.912> 818 130<45.8721 148.298> 869 99<467.206 565.741>
VStem: 33 129<831.518 934.159> 343 112<764.222 855.902> 382 105<103.644 310 382 581>
LayerCount: 2
Fore
SplineSet
98 818 m 0xfa
 56 818 33 843 33 883 c 0
 33 923 56 948 98 948 c 0
 139 948 162 922 162 883 c 0
 162 843 140 818 98 818 c 0xfa
116 704 m 0
 -3 704 -79 833 -79 870 c 0
 -79 874 -76 900 -48 900 c 0
 -26 900 -3 858 8 844 c 0
 31 813 57 789 100 789 c 0
 187 789 204 905 239 905 c 0
 266 905 309 852 309 831 c 0
 309 790 210 704 116 704 c 0
600 581 m 2
 487 581 l 1
 490 180 l 2
 491 12 350 -36 222 -36 c 0
 63 -36 -48 90 -48 133 c 0
 -48 145 -38 164 -12 164 c 0
 1 164 10 156 18 148 c 2
 24 142 l 2
 75 90 117 50 200 50 c 0
 296 50 382 89 382 152 c 2
 382 310 l 1
 235 310 l 2
 214 310 206 306 206 278 c 2
 206 234 l 2
 206 207 197 186 167 186 c 0
 119 186 32 262 32 328 c 0
 32 362 36 382 169 382 c 2
 382 382 l 1
 383 462 382 542 382 581 c 1xf280
 0 581 l 2
 -37 581 -126 680 -45 680 c 2
 555 680 l 2
 566 680 583 668 583 668 c 1
 623 629 l 2
 651 603 626 581 600 581 c 2
EndSplineSet
Refer: 249 -1 N 1 0 0 1 579 1 2
EndChar

StartChar: uni0934
Encoding: 2356 2356 247
Width: 800
GlyphClass: 2
Flags: W
HStem: -101 149<348.663 465.564> 63 51<220.663 299.027 539.81 628.94> 394 50<221.06 305.673> 583 97<4.69452 532 636 852.988> 617 63<-28.375 66.9942>
VStem: 60 125<166.913 339.231> 330 154<-82.315 29.7914> 531 106<436.083 583> 665 125<168.019 344.938>
AnchorPoint: "Anchor-8" 407 -152 basechar 0
AnchorPoint: "Anchor-7" 403 -40 basechar 0
AnchorPoint: "Anchor-6" 606 32 basechar 0
AnchorPoint: "Anchor-1" 589 680 basechar 0
AnchorPoint: "Anchor-0" 589 680 basechar 0
LayerCount: 2
Fore
SplineSet
98 617 m 2xef80
 0 617 l 2
 -5.9853515625 617 -8 618 -14 624 c 2
 -54 664 l 2
 -64 674 -61 680 -45 680 c 2xef80
 53 680 l 2xf780
 59 680 67 673 67 673 c 1
 107 633 l 2
 117 623 114 617 98 617 c 2xef80
EndSplineSet
Refer: 89 2355 N 1 0 0 1 25 0 3
Refer: 105 2364 N 1 0 0 1 684 115 2
LCarets2: 1 0
Ligature2: "'nukt' Nukta Forms lookup 756 subtable" uni0933 uni093C
Substitution2: "Single Substitution lookup 227 subtable" uni0933
EndChar

StartChar: uni0930094D
Encoding: 1114149 -1 249
Width: 0
GlyphClass: 4
Flags: W
HStem: 868 99<-111.794 -13.2589>
VStem: -236 112<763.222 854.902>
AnchorPoint: "Anchor-13" -91 679 mark 0
AnchorPoint: "Anchor-4" -91 679 mark 0
AnchorPoint: "Anchor-0" -91 680 mark 0
LayerCount: 2
Fore
SplineSet
13 835 m 1
 -11 854 -33 868 -62 868 c 0
 -88 868 -124 856 -124 806 c 0
 -124 756 -83 704 -51 671 c 1
 -146 671 l 1
 -192 722 -236 777 -236 846 c 0
 -236 903 -196 967 -98 967 c 0
 -39 967 14 943 61 872 c 1
 13 835 l 1
EndSplineSet
LCarets2: 1 0
Ligature2: "'rphf' Reph Form lookup 760 subtable" uni0930 uni094D
Substitution2: "Single Substitution lookup 39 subtable" NullMark
Substitution2: "Single Substitution lookup 29 subtable" uni0930094D0946
Substitution2: "Single Substitution lookup 26 subtable" uni0930094D0945
Substitution2: "Single Substitution lookup 23 subtable" uni093A0930094D
Substitution2: "Single Substitution lookup 22 subtable" uni0930094D0948
Substitution2: "Single Substitution lookup 19 subtable" uni0930094D0947
EndChar

StartChar: uni0931094D
Encoding: 1114150 -1 250
Width: 356
Flags: W
HStem: 276 59<188.589 339.547> 296 88<348.304 443.77> 586 94<-20.3055 383.988>
LayerCount: 2
Fore
SplineSet
401 586 m 2x20
 0 586 l 2
 -37 586 -126 680 -45 680 c 2
 356 680 l 2
 367 680 384 669 384 669 c 1
 424 632 l 2
 452 607 427 586 401 586 c 2x20
419 296 m 0x60
 382 285 341 276 298 276 c 0
 139 276 28 389 28 430 c 0
 28 443 40 458 64 458 c 0
 106 458 143 335 276 335 c 4xa0
 322 335 353 369 378 384 c 0
 441 422 460 335 443 311 c 0
 437 303 427 298 419 296 c 0x60
EndSplineSet
LCarets2: 2 0 0
Ligature2: "'half' Half Forms in Devanagari2 lookup 781 subtable" uni0931 uni094D
Ligature2: "'half' Half Forms in Devanagari2 lookup 777 subtable" uni0931 uni094D
Ligature2: "'half' Half Forms in Devanagari lookup 774 subtable" uni0931 uni094D
Ligature2: "Ligature Substitution lookup 0 subtable" uni0930 uni094D uni200D
EndChar

StartChar: uni094D0930
Encoding: 1114151 -1 251
Width: 0
GlyphClass: 4
Flags: W
HStem: -270 270
AnchorPoint: "Anchor-12" 0 0 mark 0
AnchorPoint: "Anchor-11" -14 -236 basemark 0
AnchorPoint: "Anchor-10" -58 -189 basemark 0
AnchorPoint: "Anchor-9" 28 -150 basemark 0
AnchorPoint: "Anchor-9" 0 0 mark 0
AnchorPoint: "Anchor-6" 0 0 mark 0
LayerCount: 2
Fore
SplineSet
150 -270 m 5
 -30 -123 l 5
 -218 -270 l 5
 -273 -222 l 5
 -53 0 l 5
 189 -234 l 5
 150 -270 l 5
EndSplineSet
LCarets2: 1 0
Ligature2: "'blwf' Below Base Forms in Devanagari2 lookup 773 subtable" uni094D uni0930
Ligature2: "'blwf' Below Base Forms in Devanagari lookup 772 subtable" uni0930 uni094D
EndChar

StartChar: uni0915094D
Encoding: 1114152 -1 252
Width: 691
GlyphClass: 2
Flags: W
HStem: 91 53<213.07 303.153> 417 58<612.147 717.67> 426 49<216.588 302.254> 582 98<-20.3055 407 511 718.988>
VStem: 56 125<187.296 379.531> 407 106<-39.7573 148 402 582>
AnchorPoint: "Anchor-8" 188 8 basechar 0
LayerCount: 2
Fore
SplineSet
407 402 m 1xbc
 408 476 407 549 407 582 c 1
 0 582 l 2
 -37 582 -126 680 -45 680 c 2
 691 680 l 2
 702 680 719 668 719 668 c 1
 759 630 l 2
 787 603 762 582 736 582 c 2
 511 582 l 1
 512 397 l 1
 565 458 622 475 657 475 c 0
 744 475 807 403 858 346 c 1
 781 304 l 1
 765 347 720 417 665 417 c 0xdc
 604 417 532 318 513 267 c 1
 516 -53 l 2
 516 -65 499 -96 467 -74 c 0
 458 -65 405 -27 405 0 c 2
 407 148 l 1
 364 113 324 91 249 91 c 0
 138 91 56 161 56 282 c 0
 56 402 135 475 249 475 c 0
 315 475 366 448 407 402 c 1xbc
253 426 m 0xbc
 209 426 181 349 181 282 c 0
 181 211 206 144 253 144 c 0
 309 144 375 240 402 297 c 5
 381 338 298 426 253 426 c 0xbc
EndSplineSet
LCarets2: 1 0
Ligature2: "'half' Half Forms in Devanagari2 lookup 781 subtable" uni0915 uni094D
Ligature2: "'half' Half Forms in Devanagari2 lookup 777 subtable" uni0915 uni094D
Ligature2: "'half' Half Forms in Devanagari lookup 774 subtable" uni0915 uni094D
EndChar

StartChar: uni0916094D
Encoding: 1114153 -1 253
Width: 583
GlyphClass: 2
Flags: W
HStem: 43 92<333.165 557.426> 178 50<443.973 535.27> 452 56<448.125 528.007> 583 97<-20.3055 156.792 213 611.988>
VStem: 178 81<413.323 532.718> 301 125<261.753 422.896>
AnchorPoint: "Anchor-8" 124 -19 basechar 0
LayerCount: 2
Fore
SplineSet
468 178 m 0
 365 178 301 262 301 342 c 0
 301 422 363 508 469 508 c 0
 515 508 568 495 620 465 c 1
 579 372 l 1
 535 429 513 452 478 452 c 0
 444 452 426 396 426 342 c 0
 426 297 432 228 478 228 c 0
 540 228 575 285 609 363 c 1
 687 291 l 1
 629 223 556 178 468 178 c 0
438 43 m 0
 289 43 185 132 112 252 c 0
 80 304 48 381 48 400 c 0
 48 418 66 429 85 429 c 0
 112 429 130 408 146 408 c 0
 149 408 178 412 178 484 c 0
 178 503 170 545 144 583 c 1
 0 583 l 2
 -37 583 -126 680 -45 680 c 2
 584 680 l 2
 595 680 612 668 612 668 c 1
 652 630 l 2
 680 604 655 583 629 583 c 2
 213 583 l 5
 242 528 259 485 259 443 c 0
 259 382 201 323 154 286 c 1
 228 188 356 135 439 135 c 0
 516 135 595 139 690 186 c 1
 692 131 l 1
 598 78 531 43 438 43 c 0
EndSplineSet
LCarets2: 1 0
Ligature2: "'half' Half Forms in Devanagari2 lookup 781 subtable" uni0916 uni094D
Ligature2: "'half' Half Forms in Devanagari2 lookup 777 subtable" uni0916 uni094D
Ligature2: "'half' Half Forms in Devanagari lookup 774 subtable" uni0916 uni094D
EndChar

StartChar: uni0917094D
Encoding: 1114154 -1 254
Width: 325
GlyphClass: 2
Flags: W
HStem: 585 95<-20.3055 158 210 353.988>
VStem: 159 83<339 557.438>
AnchorPoint: "Anchor-8" 143 74 basechar 0
LayerCount: 2
Fore
SplineSet
371 585 m 2
 210 585 l 1
 231 493 242 376 242 351 c 0
 242 327 250 229 207 229 c 0
 156 229 40 324 40 356 c 0
 40 373 52 380 64 383 c 0
 85 388 119 382 133 389 c 4
 145 394 159 413 159 489 c 0
 159 508 158 553 158 585 c 1
 0 585 l 2
 -37 585 -126 680 -45 680 c 2
 326 680 l 2
 337 680 354 669 354 669 c 1
 394 631 l 2
 422 606 397 585 371 585 c 2
EndSplineSet
LCarets2: 1 0
Ligature2: "'half' Half Forms in Devanagari2 lookup 781 subtable" uni0917 uni094D
Ligature2: "'half' Half Forms in Devanagari2 lookup 777 subtable" uni0917 uni094D
Ligature2: "'half' Half Forms in Devanagari lookup 774 subtable" uni0917 uni094D
EndChar

StartChar: uni0918094D
Encoding: 1114155 -1 255
Width: 447
GlyphClass: 2
Flags: W
HStem: 8 54<271.394 366.759> 583 97<-20.3055 127 208.451 473.988>
VStem: 46 136<387.625 523.104> 90 128<129.391 266.496>
AnchorPoint: "Anchor-8" 202 -8 basechar 0
LayerCount: 2
Fore
SplineSet
307 8 m 0xd0
 183 8 90 65 90 185 c 0xd0
 90 236 113 282 151 316 c 1
 96 342 46 374 46 458 c 0
 46 491 73 551 127 583 c 1
 0 583 l 2
 -37 583 -126 680 -45 680 c 2
 446 680 l 2
 457 680 474 668 474 668 c 1
 514 630 l 2
 542 604 517 583 491 583 c 2
 229 583 l 1
 195 555 182 516 182 474 c 0xe0
 182 411 199 384 224 369 c 1
 247 383 280 407 307 407 c 0
 335 407 354 376 354 357 c 0
 354 308 218 308 218 224 c 0
 218 149 263 62 310 62 c 0
 393 62 476 206 507 302 c 1
 596 222 l 1
 476 45 399 8 307 8 c 0xd0
EndSplineSet
LCarets2: 1 0
Ligature2: "'half' Half Forms in Devanagari2 lookup 781 subtable" uni0918 uni094D
Ligature2: "'half' Half Forms in Devanagari2 lookup 777 subtable" uni0918 uni094D
Ligature2: "'half' Half Forms in Devanagari lookup 774 subtable" uni0918 uni094D
EndChar

StartChar: uni091A094D
Encoding: 1114157 -1 257
Width: 510
GlyphClass: 2
Flags: W
HStem: 116 53<332.394 437.081> 408 96<97.6945 218 309.21 442.988> 584 96<-20.3055 538.988>
VStem: 151 128<235.876 358.884>
AnchorPoint: "Anchor-8" 171 14 basechar 0
LayerCount: 2
Fore
SplineSet
556 584 m 2
 0 584 l 2
 -37 584 -126 680 -45 680 c 2
 511 680 l 2
 522 680 539 668 539 668 c 1
 579 631 l 2
 607 605 582 584 556 584 c 2
368 116 m 0
 244 116 151 162 151 282 c 0
 151 328 172 373 218 408 c 1
 118 408 l 2
 81 408 -8 504 73 504 c 2
 415 504 l 2
 426 504 443 493 443 493 c 1
 483 455 l 2
 511 429 486 408 460 408 c 2
 339 408 l 1
 294 382 279 352 279 330 c 0
 279 254 324 169 371 169 c 4
 457 169 513 262 581 376 c 1
 581 238 l 1
 536 167 458 116 368 116 c 0
EndSplineSet
LCarets2: 1 0
Ligature2: "'half' Half Forms in Devanagari2 lookup 781 subtable" uni091A uni094D
Ligature2: "'half' Half Forms in Devanagari2 lookup 777 subtable" uni091A uni094D
Ligature2: "'half' Half Forms in Devanagari lookup 774 subtable" uni091A uni094D
EndChar

StartChar: uni091B094D
Encoding: 1114158 -1 258
Width: 656
GlyphClass: 2
Flags: W
HStem: 8 44<260.08 374.322> 310 79<226.304 287.927> 464 40<454.886 498.596> 516 40<127.5 206.317> 583 97<-20.3055 683.988>
VStem: 18 136<376.933 503.133> 62 128<135.761 265.026> 314 115<267.427 427.464> 515 115<225.957 426.555>
AnchorPoint: "Anchor-8" 344 -127 basechar 0
AnchorPoint: "Anchor-6" 387 -37 basechar 0
LayerCount: 2
Fore
SplineSet
701 583 m 6xf980
 0 583 l 6
 -37 583 -126 680 -45 680 c 6
 656 680 l 6
 667 680 684 668 684 668 c 5
 724 630 l 6
 752 604 727 583 701 583 c 6xf980
EndSplineSet
Refer: 206 43256 N 1 0 0 1 0 0 2
LCarets2: 2 0 0
Ligature2: "'half' Half Forms in Devanagari2 lookup 781 subtable" uni091B uni094D uni200D
Ligature2: "'half' Half Forms in Devanagari2 lookup 777 subtable" uni091B uni094D
Ligature2: "'half' Half Forms in Devanagari lookup 774 subtable" uni091B uni094D
EndChar

StartChar: uni091C094D
Encoding: 1114159 -1 259
Width: 504
GlyphClass: 2
Flags: W
HStem: 96 50<290.684 397.228> 584 96<-20.3055 532.988>
VStem: 14 103<368.868 414.118> 424 125<173.281 281.914>
AnchorPoint: "Anchor-8" 286 -36 basechar 0
LayerCount: 2
Fore
SplineSet
550 584 m 2
 0 584 l 2
 -37 584 -126 680 -45 680 c 2
 505 680 l 2
 516 680 533 668 533 668 c 1
 573 631 l 2
 601 605 576 584 550 584 c 2
444.748046875 361 m 1
 632 361 l 1
 632 457 l 1
 300 457 l 2
 274 457 249 436 277 410 c 0
 316 374 424 281 424 234 c 0
 424 185 390 146 349 146 c 0
 262 146 175 283 117 411 c 4
 111 425 98 430 86 430 c 4
 58 430 14 407 14 391 c 0
 14 374 158 96 369 96 c 0
 438 96 549 111 549 223 c 0
 549 273.893713207 504 324 444.748046875 361 c 1
EndSplineSet
LCarets2: 1 0
Ligature2: "'half' Half Forms in Devanagari2 lookup 781 subtable" uni091C uni094D
Ligature2: "'half' Half Forms in Devanagari2 lookup 777 subtable" uni091C uni094D
Ligature2: "'half' Half Forms in Devanagari lookup 774 subtable" uni091C uni094D
EndChar

StartChar: uni091D094D
Encoding: 1114160 -1 260
Width: 602
GlyphClass: 2
Flags: W
HStem: -227 113<270.146 404.876> -16 52<208.151 332.443> 120 65<498.371 607.25> 201 58<188.596 348.167> 217 62<237.567 385.14> 436 49<184.498 334> 581 99<-20.3055 336 442 630.988>
VStem: 24 125<297.109 402.047> 52 139<54.2361 134.766> 334 110<485 581>
AnchorPoint: "Anchor-8" 119 -119 basechar 0
LayerCount: 2
Fore
SplineSet
500 143 m 1xef40
 491 69 421 -16 298 -16 c 0
 269 -16 214 -8 175 5 c 1
 197 -87 300 -114 378 -114 c 0
 398 -114 417 -149 417 -177 c 0
 417 -216 387 -227 354 -227 c 0
 247 -227 137 -126 116 21 c 1
 90 31 52 54 52 98 c 0
 52 140 92 156 119 156 c 0
 173 156 189 111 191 76 c 1
 210 47 243 36 274 36 c 0
 341 36 376 98 376 149 c 0
 376 188 348 217 338 217 c 0xeec0
 325 217 310 212 298 209 c 0
 279 205 256 201 229 201 c 0
 165 201 24 241 24 352 c 0
 24 420 80 485 194 485 c 2
 334 485 l 1
 335 525 336 561 336 581 c 1
 0 581 l 2
 -37 581 -126 680 -45 680 c 2
 603 680 l 2
 614 680 631 668 631 668 c 1
 671 629 l 2
 699 603 674 581 648 581 c 2
 442 581 l 1
 442 548 444 504 444 436 c 1
 262 436 l 2
 167 436 149 375 149 352 c 0
 149 303 200 259 243 259 c 0xf740
 283 259 317 279 361 279 c 0
 408 279 471 251 493 188 c 1
 509 186 526 185 536 185 c 0
 587 185 634 205 698 327 c 1
 698 206 l 1
 666 140 630 120 588 120 c 0
 561 120 532 128 500 143 c 1xef40
EndSplineSet
LCarets2: 1 0
Ligature2: "'half' Half Forms in Devanagari2 lookup 777 subtable" uni091D uni094D
Ligature2: "'half' Half Forms in Devanagari lookup 774 subtable" uni091D uni094D
EndChar

StartChar: uni091E094D
Encoding: 1114161 -1 261
Width: 570
GlyphClass: 2
Flags: W
HStem: 109 50<292.928 396.824> 286 55<573.413 662.95> 423 20G<91 111> 466 47<344.926 426.39> 584 96<-20.3055 598.988>
VStem: 452 267<297.303 428>
AnchorPoint: "Anchor-8" 295 8 basechar 0
LayerCount: 2
Fore
SplineSet
616 584 m 2
 0 584 l 2
 -37 584 -126 680 -45 680 c 2
 571 680 l 2
 582 680 599 668 599 668 c 1
 639 631 l 2
 667 605 642 584 616 584 c 2
719 302 m 1
 690 286 674 286 637 286 c 0
 619 286 598 289 574 297 c 1
 566 226 522 109 353 109 c 0
 141 109 23 389 23 403 c 0
 23 419 77 443 105 443 c 0
 117 443 130 438 136 424 c 0
 194 295 261 159 348 159 c 0
 388 159 452 206 452 345 c 0
 452 428 420 466 395 466 c 0
 321 466 320 368 279 368 c 0
 239 368 214 432 214 448 c 0
 214 461 279 513 395 513 c 0
 491 513 555 433 571 347 c 1
 586 344 602 341 616 341 c 0
 656 341 694 385 722 468 c 1
 719 302 l 1
EndSplineSet
LCarets2: 1 0
Ligature2: "'half' Half Forms in Devanagari2 lookup 781 subtable" uni091E uni094D
Ligature2: "'half' Half Forms in Devanagari2 lookup 777 subtable" uni091E uni094D
Ligature2: "'half' Half Forms in Devanagari lookup 774 subtable" uni091E uni094D
EndChar

StartChar: uni0923094D
Encoding: 1114166 -1 266
Width: 570
GlyphClass: 2
Flags: W
HStem: 180 46<228.555 339.6> 585 95<-20.3055 98 202 367 472 597.988>
VStem: 98 105<269.016 585> 367 105<264.553 585>
AnchorPoint: "Anchor-8" 282 37 basechar 0
LayerCount: 2
Fore
SplineSet
615 585 m 2
 472 585 l 1
 472 349 l 2
 472 221 361 180 285 180 c 0
 219 180 98 222 98 349 c 2
 98 585 l 1
 0 585 l 2
 -37 585 -126 680 -45 680 c 2
 570 680 l 2
 581 680 598 669 598 669 c 1
 638 631 l 2
 666 605 641 585 615 585 c 2
367 585 m 1
 202 585 l 1
 203 319 l 6
 203 286 217 226 285 226 c 4
 353 226 367 286 367 319 c 6
 367 585 l 1
EndSplineSet
LCarets2: 1 0
Ligature2: "'half' Half Forms in Devanagari2 lookup 781 subtable" uni0923 uni094D
Ligature2: "'half' Half Forms in Devanagari2 lookup 777 subtable" uni0923 uni094D
Ligature2: "'half' Half Forms in Devanagari lookup 774 subtable" uni0923 uni094D
EndChar

StartChar: uni0924094D
Encoding: 1114167 -1 267
Width: 377
GlyphClass: 2
Flags: W
HStem: 322 71<193.593 466> 582 98<-20.3055 407.988>
VStem: 34 125<118.07 286.777>
AnchorPoint: "Anchor-8" 257 -134 basechar 0
LayerCount: 2
Fore
SplineSet
425 582 m 2
 0 582 l 2
 -37 582 -126 680 -45 680 c 2
 380 680 l 2
 391 680 408 668 408 668 c 1
 448 630 l 2
 476 603 451 582 425 582 c 2
275 322 m 6
 183 322 159 273 159 213 c 0
 159 140 176 60 222 5 c 0
 231 -7 239 -19 242 -30 c 2
 242 -34 l 2
 239 -56 228 -74 200 -74 c 0
 192 -74 185 -71 181 -67 c 0
 176 -62 34 81 34 213 c 0
 34 328 101 393 235 393 c 2
 466 393 l 1
 466 322 l 1
 275 322 l 6
EndSplineSet
LCarets2: 1 0
Ligature2: "'half' Half Forms in Devanagari2 lookup 781 subtable" uni0924 uni094D
Ligature2: "'half' Half Forms in Devanagari2 lookup 777 subtable" uni0924 uni094D
Ligature2: "'half' Half Forms in Devanagari lookup 774 subtable" uni0924 uni094D
EndChar

